  0
SECTION
  2
HEADER
  9
$ACADVER
  1
AC1021
  9
$ACADMAINTVER
 70
    25
  9
$DWGCODEPAGE
  3
ANSI_1252
  9
$LASTSAVEDBY
  1
macbookdiab
  9
$INSBASE
 10
0.0
 20
0.0
 30
0.0
  9
$EXTMIN
 10
1.000000000000000E+20
 20
1.000000000000000E+20
 30
1.000000000000000E+20
  9
$EXTMAX
 10
-1.000000000000000E+20
 20
-1.000000000000000E+20
 30
-1.000000000000000E+20
  9
$LIMMIN
 10
0.0
 20
0.0
  9
$LIMMAX
 10
12.0
 20
9.0
  9
$ORTHOMODE
 70
     0
  9
$REGENMODE
 70
     1
  9
$FILLMODE
 70
     1
  9
$QTEXTMODE
 70
     0
  9
$MIRRTEXT
 70
     1
  9
$LTSCALE
 40
1.0
  9
$ATTMODE
 70
     1
  9
$TEXTSIZE
 40
0.2
  9
$TRACEWID
 40
0.05
  9
$TEXTSTYLE
  7
Standard
  9
$CLAYER
  8
0
  9
$CELTYPE
  6
ByLayer
  9
$CECOLOR
 62
   256
  9
$CELTSCALE
 40
1.0
  9
$DISPSILH
 70
     0
  9
$DIMSCALE
 40
1.0
  9
$DIMASZ
 40
0.18
  9
$DIMEXO
 40
0.0625
  9
$DIMDLI
 40
0.38
  9
$DIMRND
 40
0.0
  9
$DIMDLE
 40
0.0
  9
$DIMEXE
 40
0.18
  9
$DIMTP
 40
0.0
  9
$DIMTM
 40
0.0
  9
$DIMTXT
 40
0.18
  9
$DIMCEN
 40
0.09
  9
$DIMTSZ
 40
0.0
  9
$DIMTOL
 70
     0
  9
$DIMLIM
 70
     0
  9
$DIMTIH
 70
     1
  9
$DIMTOH
 70
     1
  9
$DIMSE1
 70
     0
  9
$DIMSE2
 70
     0
  9
$DIMTAD
 70
     0
  9
$DIMZIN
 70
     0
  9
$DIMBLK
  1

  9
$DIMASO
 70
     1
  9
$DIMSHO
 70
     1
  9
$DIMPOST
  1

  9
$DIMAPOST
  1

  9
$DIMALT
 70
     0
  9
$DIMALTD
 70
     2
  9
$DIMALTF
 40
25.4
  9
$DIMLFAC
 40
1.0
  9
$DIMTOFL
 70
     0
  9
$DIMTVP
 40
0.0
  9
$DIMTIX
 70
     0
  9
$DIMSOXD
 70
     0
  9
$DIMSAH
 70
     0
  9
$DIMBLK1
  1

  9
$DIMBLK2
  1

  9
$DIMSTYLE
  2
STANDARD_ACAD
  9
$DIMCLRD
 70
     0
  9
$DIMCLRE
 70
     0
  9
$DIMCLRT
 70
     0
  9
$DIMTFAC
 40
1.0
  9
$DIMGAP
 40
0.09
  9
$DIMJUST
 70
     0
  9
$DIMSD1
 70
     0
  9
$DIMSD2
 70
     0
  9
$DIMTOLJ
 70
     1
  9
$DIMTZIN
 70
     0
  9
$DIMALTZ
 70
     0
  9
$DIMALTTZ
 70
     0
  9
$DIMUPT
 70
     0
  9
$DIMDEC
 70
     4
  9
$DIMTDEC
 70
     4
  9
$DIMALTU
 70
     2
  9
$DIMALTTD
 70
     2
  9
$DIMTXSTY
  7
Standard
  9
$DIMAUNIT
 70
     0
  9
$DIMADEC
 70
     0
  9
$DIMALTRND
 40
0.0
  9
$DIMAZIN
 70
     0
  9
$DIMDSEP
 70
    46
  9
$DIMATFIT
 70
     3
  9
$DIMFRAC
 70
     0
  9
$DIMLDRBLK
  1

  9
$DIMLUNIT
 70
     2
  9
$DIMLWD
 70
    -2
  9
$DIMLWE
 70
    -2
  9
$DIMTMOVE
 70
     2
  9
$DIMFXL
 40
1.0
  9
$DIMFXLON
 70
     0
  9
$DIMJOGANG
 40
0.7853981633974483
  9
$DIMTFILL
 70
     0
  9
$DIMTFILLCLR
 70
     0
  9
$DIMARCSYM
 70
     0
  9
$DIMLTYPE
  6

  9
$DIMLTEX1
  6

  9
$DIMLTEX2
  6

  9
$LUNITS
 70
     2
  9
$LUPREC
 70
     2
  9
$SKETCHINC
 40
0.1
  9
$FILLETRAD
 40
0.5
  9
$AUNITS
 70
     0
  9
$AUPREC
 70
     0
  9
$MENU
  1
.
  9
$ELEVATION
 40
0.0
  9
$PELEVATION
 40
0.0
  9
$THICKNESS
 40
0.0
  9
$LIMCHECK
 70
     0
  9
$CHAMFERA
 40
0.0
  9
$CHAMFERB
 40
0.0
  9
$CHAMFERC
 40
0.0
  9
$CHAMFERD
 40
0.0
  9
$SKPOLY
 70
     0
  9
$TDCREATE
 40
2459847.509183623
  9
$TDUCREATE
 40
2459847.467516956
  9
$TDUPDATE
 40
2459847.509204688
  9
$TDUUPDATE
 40
2459847.467538021
  9
$TDINDWG
 40
0.0000000116
  9
$TDUSRTIMER
 40
0.0000000116
  9
$USRTIMER
 70
     1
  9
$ANGBASE
 50
0.0
  9
$ANGDIR
 70
     0
  9
$PDMODE
 70
     0
  9
$PDSIZE
 40
0.0
  9
$PLINEWID
 40
0.0
  9
$SPLFRAME
 70
     0
  9
$SPLINETYPE
 70
     6
  9
$SPLINESEGS
 70
     8
  9
$HANDSEED
  5
349
  9
$SURFTAB1
 70
     6
  9
$SURFTAB2
 70
     6
  9
$SURFTYPE
 70
     6
  9
$SURFU
 70
     6
  9
$SURFV
 70
     6
  9
$UCSBASE
  2

  9
$UCSNAME
  2

  9
$UCSORG
 10
0.0
 20
0.0
 30
0.0
  9
$UCSXDIR
 10
1.0
 20
0.0
 30
0.0
  9
$UCSYDIR
 10
0.0
 20
1.0
 30
0.0
  9
$UCSORTHOREF
  2

  9
$UCSORTHOVIEW
 70
     0
  9
$UCSORGTOP
 10
0.0
 20
0.0
 30
0.0
  9
$UCSORGBOTTOM
 10
0.0
 20
0.0
 30
0.0
  9
$UCSORGLEFT
 10
0.0
 20
0.0
 30
0.0
  9
$UCSORGRIGHT
 10
0.0
 20
0.0
 30
0.0
  9
$UCSORGFRONT
 10
0.0
 20
0.0
 30
0.0
  9
$UCSORGBACK
 10
0.0
 20
0.0
 30
0.0
  9
$PUCSBASE
  2

  9
$PUCSNAME
  2

  9
$PUCSORG
 10
0.0
 20
0.0
 30
0.0
  9
$PUCSXDIR
 10
1.0
 20
0.0
 30
0.0
  9
$PUCSYDIR
 10
0.0
 20
1.0
 30
0.0
  9
$PUCSORTHOREF
  2

  9
$PUCSORTHOVIEW
 70
     0
  9
$PUCSORGTOP
 10
0.0
 20
0.0
 30
0.0
  9
$PUCSORGBOTTOM
 10
0.0
 20
0.0
 30
0.0
  9
$PUCSORGLEFT
 10
0.0
 20
0.0
 30
0.0
  9
$PUCSORGRIGHT
 10
0.0
 20
0.0
 30
0.0
  9
$PUCSORGFRONT
 10
0.0
 20
0.0
 30
0.0
  9
$PUCSORGBACK
 10
0.0
 20
0.0
 30
0.0
  9
$USERI1
 70
     0
  9
$USERI2
 70
     0
  9
$USERI3
 70
     0
  9
$USERI4
 70
     0
  9
$USERI5
 70
     0
  9
$USERR1
 40
0.0
  9
$USERR2
 40
0.0
  9
$USERR3
 40
0.0
  9
$USERR4
 40
0.0
  9
$USERR5
 40
0.0
  9
$WORLDVIEW
 70
     1
  9
$SHADEDGE
 70
     3
  9
$SHADEDIF
 70
    70
  9
$TILEMODE
 70
     1
  9
$MAXACTVP
 70
    64
  9
$PINSBASE
 10
0.0
 20
0.0
 30
0.0
  9
$PLIMCHECK
 70
     0
  9
$PEXTMIN
 10
1.000000000000000E+20
 20
1.000000000000000E+20
 30
1.000000000000000E+20
  9
$PEXTMAX
 10
-1.000000000000000E+20
 20
-1.000000000000000E+20
 30
-1.000000000000000E+20
  9
$PLIMMIN
 10
0.0
 20
0.0
  9
$PLIMMAX
 10
12.0
 20
9.0
  9
$UNITMODE
 70
     0
  9
$VISRETAIN
 70
     1
  9
$PLINEGEN
 70
     0
  9
$PSLTSCALE
 70
     1
  9
$TREEDEPTH
 70
  3020
  9
$CMLSTYLE
  2
Standard
  9
$CMLJUST
 70
     0
  9
$CMLSCALE
 40
1.0
  9
$PROXYGRAPHICS
 70
     1
  9
$MEASUREMENT
 70
     1
  9
$CELWEIGHT
370
    -1
  9
$ENDCAPS
280
     0
  9
$JOINSTYLE
280
     0
  9
$LWDISPLAY
290
     0
  9
$INSUNITS
 70
     4
  9
$HYPERLINKBASE
  1

  9
$STYLESHEET
  1

  9
$XEDIT
290
     1
  9
$CEPSNTYPE
380
     0
  9
$PSTYLEMODE
290
     1
  9
$FINGERPRINTGUID
  2
{89cb1925-47cb-4342-a08a-fc8379fc8015}
  9
$VERSIONGUID
  2
{FAEB1C32-E019-11D5-929B-00C0DF256EC4}
  9
$EXTNAMES
290
     1
  9
$PSVPSCALE
 40
0.0
  9
$OLESTARTUP
290
     0
  9
$SORTENTS
280
   127
  9
$INDEXCTL
280
     0
  9
$HIDETEXT
280
     1
  9
$XCLIPFRAME
290
     0
  9
$HALOGAP
280
     0
  9
$OBSCOLOR
 70
   257
  9
$OBSLTYPE
280
     0
  9
$INTERSECTIONDISPLAY
280
     0
  9
$INTERSECTIONCOLOR
 70
   257
  9
$DIMASSOC
280
     2
  9
$PROJECTNAME
  1

  9
$CAMERADISPLAY
290
     0
  9
$LENSLENGTH
 40
50.0
  9
$CAMERAHEIGHT
 40
0.0
  9
$STEPSPERSEC
 40
2.0
  9
$STEPSIZE
 40
6.0
  9
$3DDWFPREC
 40
2.0
  9
$PSOLWIDTH
 40
0.25
  9
$PSOLHEIGHT
 40
4.0
  9
$LOFTANG1
 40
1.570796326794897
  9
$LOFTANG2
 40
1.570796326794897
  9
$LOFTMAG1
 40
0.0
  9
$LOFTMAG2
 40
0.0
  9
$LOFTPARAM
 70
     7
  9
$LOFTNORMALS
280
     1
  9
$LATITUDE
 40
37.795
  9
$LONGITUDE
 40
-122.394
  9
$NORTHDIRECTION
 40
0.0
  9
$TIMEZONE
 70
 -8000
  9
$LIGHTGLYPHDISPLAY
280
     1
  9
$TILEMODELIGHTSYNCH
280
     1
  9
$CMATERIAL
347
44
  9
$SOLIDHIST
280
     0
  9
$SHOWHIST
280
     1
  9
$DWFFRAME
280
     2
  9
$DGNFRAME
280
     2
  9
$REALWORLDSCALE
290
     1
  9
$INTERFERECOLOR
 62
   256
  9
$CSHADOW
280
     0
  9
$SHADOWPLANELOCATION
 40
0.0
  0
ENDSEC
  0
SECTION
  2
CLASSES
  0
CLASS
  1
ACDBDICTIONARYWDFLT
  2
AcDbDictionaryWithDefault
  3
ObjectDBX Classes
 90
        0
 91
        3
280
     0
281
     0
  0
CLASS
  1
VISUALSTYLE
  2
AcDbVisualStyle
  3
ObjectDBX Classes
 90
     4095
 91
        3
280
     0
281
     0
  0
CLASS
  1
MATERIAL
  2
AcDbMaterial
  3
ObjectDBX Classes
 90
     1153
 91
        3
280
     0
281
     0
  0
CLASS
  1
SCALE
  2
AcDbScale
  3
ObjectDBX Classes
 90
     1153
 91
        3
280
     0
281
     0
  0
CLASS
  1
TABLESTYLE
  2
AcDbTableStyle
  3
ObjectDBX Classes
 90
     4095
 91
        3
280
     0
281
     0
  0
CLASS
  1
MLEADERSTYLE
  2
AcDbMLeaderStyle
  3
ACDB_MLEADERSTYLE_CLASS
 90
     4095
 91
        3
280
     0
281
     0
  0
CLASS
  1
SUN
  2
AcDbSun
  3
SCENEOE
 90
     1153
 91
        3
280
     0
281
     0
  0
CLASS
  1
DICTIONARYVAR
  2
AcDbDictionaryVar
  3
ObjectDBX Classes
 90
        0
 91
        3
280
     0
281
     0
  0
CLASS
  1
CELLSTYLEMAP
  2
AcDbCellStyleMap
  3
ObjectDBX Classes
 90
     1152
 91
        3
280
     0
281
     0
  0
ENDSEC
  0
SECTION
  2
TABLES
  0
TABLE
  2
VPORT
  5
8
330
0
100
AcDbSymbolTable
 70
     1
  0
VPORT
  5
29
330
8
100
AcDbSymbolTableRecord
100
AcDbViewportTableRecord
  2
*Active
 70
     0
 10
0.0
 20
0.0
 11
1.0
 21
1.0
 12
10.42990654205607
 22
4.5
 13
0.0
 23
0.0
 14
0.5
 24
0.5
 15
0.5
 25
0.5
 16
0.0
 26
0.0
 36
1.0
 17
0.0
 27
0.0
 37
0.0
 40
9.0
 41
1.972972972850329
 42
50.0
 43
0.0
 44
0.0
 50
0.0
 51
0.0
 71
     0
 72
   100
 73
     1
 74
     3
 75
     0
 76
     0
 77
     0
 78
     0
281
     0
 65
     1
110
0.0
120
0.0
130
0.0
111
1.0
121
0.0
131
0.0
112
0.0
122
1.0
132
0.0
 79
     0
146
0.0
348
2F
 60
     3
 61
     5
292
     1
282
     1
141
0.0
142
0.0
 63
   250
361
6D
  0
ENDTAB
  0
TABLE
  2
LTYPE
  5
5
330
0
100
AcDbSymbolTable
 70
     1
  0
LTYPE
  5
14
330
5
100
AcDbSymbolTableRecord
100
AcDbLinetypeTableRecord
  2
ByBlock
 70
     0
  3

 72
    65
 73
     0
 40
0.0
  0
LTYPE
  5
15
330
5
100
AcDbSymbolTableRecord
100
AcDbLinetypeTableRecord
  2
ByLayer
 70
     0
  3

 72
    65
 73
     0
 40
0.0
  0
LTYPE
  5
16
330
5
100
AcDbSymbolTableRecord
100
AcDbLinetypeTableRecord
  2
Continuous
 70
     0
  3
Solid line
 72
    65
 73
     0
 40
0.0
  0
ENDTAB
  0
TABLE
  2
LAYER
  5
2
330
0
100
AcDbSymbolTable
 70
     6
  0
LAYER
  5
10
330
2
100
AcDbSymbolTableRecord
100
AcDbLayerTableRecord
  2
0
 70
     0
 62
   178
420
        0
  6
Continuous
370
    -3
390
F
347
46
  0
LAYER
  5
6F
330
2
100
AcDbSymbolTableRecord
100
AcDbLayerTableRecord
  2
Abbattitore
 70
     0
 62
    40
420
 16760576
  6
Continuous
370
    -3
390
F
347
46
  0
LAYER
  5
A0
330
2
100
AcDbSymbolTableRecord
100
AcDbLayerTableRecord
  2
Dimensioni
 70
     0
 62
   168
420
  1513239
  6
Continuous
370
    -3
390
F
347
46
  0
LAYER
  5
A8
330
2
100
AcDbSymbolTableRecord
100
AcDbLayerTableRecord
  2
Defpoints
 70
     0
 62
     7
  6
Continuous
290
     0
370
    -3
390
F
347
46
  0
LAYER
  5
B5
330
2
100
AcDbSymbolTableRecord
100
AcDbLayerTableRecord
  2
Rivestimento
 70
     0
 62
    15
420
 12533567
  6
Continuous
370
    -3
390
F
347
46
  0
LAYER
  5
12D
330
2
100
AcDbSymbolTableRecord
100
AcDbLayerTableRecord
  2
Frontalino
 70
     0
 62
    30
420
 16744192
  6
Continuous
370
    -3
390
F
347
46
  0
ENDTAB
  0
TABLE
  2
STYLE
  5
3
330
0
100
AcDbSymbolTable
 70
     2
  0
STYLE
  5
11
330
3
100
AcDbSymbolTableRecord
100
AcDbTextStyleTableRecord
  2
Standard
 70
     0
 40
0.0
 41
1.0
 50
0.0
 71
     0
 42
0.2
  3
txt
  4

  0
STYLE
  5
A2
330
3
100
AcDbSymbolTableRecord
100
AcDbTextStyleTableRecord
  2
Arial Regular
 70
     0
 40
0.0
 41
1.0
 50
0.0
 71
     0
 42
0.2
  3

  4

1001
ACAD
1000
Arial
1071
      256
  0
ENDTAB
  0
TABLE
  2
VIEW
  5
6
330
0
100
AcDbSymbolTable
 70
     0
  0
ENDTAB
  0
TABLE
  2
UCS
  5
7
330
0
100
AcDbSymbolTable
 70
     0
  0
ENDTAB
  0
TABLE
  2
APPID
  5
9
330
0
100
AcDbSymbolTable
 70
     3
  0
APPID
  5
12
330
9
100
AcDbSymbolTableRecord
100
AcDbRegAppTableRecord
  2
ACAD
 70
     0
  0
APPID
  5
6E
330
9
100
AcDbSymbolTableRecord
100
AcDbRegAppTableRecord
  2
Rhino
 70
     0
  0
APPID
  5
341
330
9
100
AcDbSymbolTableRecord
100
AcDbRegAppTableRecord
  2
ACAD_MLEADERVER
 70
     0
  0
ENDTAB
  0
TABLE
  2
DIMSTYLE
  5
A
330
0
100
AcDbSymbolTable
 70
     2
100
AcDbDimStyleTable
  0
DIMSTYLE
105
27
330
A
100
AcDbSymbolTableRecord
100
AcDbDimStyleTableRecord
  2
STANDARD_ACAD
 70
     0
178
     0
340
11
  0
DIMSTYLE
105
A1
102
{ACAD_REACTORS
330
A3
330
1BE
330
22B
330
238
330
245
330
252
330
260
330
26D
330
27A
330
287
330
295
330
2A2
330
2AF
330
2BC
330
2C9
330
2D7
330
2E4
330
2F1
330
2FF
102
}
330
A
100
AcDbSymbolTableRecord
100
AcDbDimStyleTableRecord
  2
Millimeter Large
 70
     0
 40
100.0
 41
3.5
 42
0.5
 44
1.0
 73
     0
 77
     1
 78
     1
 79
     1
140
3.5
141
3.5
143
0.0393700787401575
147
1.0
174
     1
178
     0
271
     1
279
     1
284
     1
340
A2
  0
ENDTAB
  0
TABLE
  2
BLOCK_RECORD
  5
1
330
0
100
AcDbSymbolTable
 70
    21
  0
BLOCK_RECORD
  5
1F
330
1
100
AcDbSymbolTableRecord
100
AcDbBlockTableRecord
  2
*Model_Space
340
22
 70
     0
280
     1
281
     0
  0
BLOCK_RECORD
  5
1B
330
1
100
AcDbSymbolTableRecord
100
AcDbBlockTableRecord
  2
*Paper_Space
340
1E
 70
     0
280
     1
281
     0
  0
BLOCK_RECORD
  5
23
330
1
100
AcDbSymbolTableRecord
100
AcDbBlockTableRecord
  2
*Paper_Space0
340
26
 70
     0
280
     1
281
     0
  0
BLOCK_RECORD
  5
A4
330
1
100
AcDbSymbolTableRecord
100
AcDbBlockTableRecord
  2
_ArchTick
340
0
102
{BLKREFS
331
B0
331
AF
331
1C6
331
1C5
331
233
331
232
331
240
331
23F
331
24D
331
24C
331
25B
331
25A
331
268
331
267
331
275
331
274
331
282
331
281
331
290
331
28F
331
29D
331
29C
331
2AA
331
2A9
331
2B7
331
2B6
331
2C4
331
2C3
331
2D2
331
2D1
331
2DF
331
2DE
331
2EC
331
2EB
331
2FA
331
2F9
331
307
331
306
102
}
 70
     0
280
     1
281
     0
  0
BLOCK_RECORD
  5
A9
330
1
100
AcDbSymbolTableRecord
100
AcDbBlockTableRecord
  2
*D2
340
0
 70
     0
280
     1
281
     0
  0
BLOCK_RECORD
  5
1BF
330
1
100
AcDbSymbolTableRecord
100
AcDbBlockTableRecord
  2
*D3
340
0
 70
     0
280
     1
281
     0
  0
BLOCK_RECORD
  5
22C
330
1
100
AcDbSymbolTableRecord
100
AcDbBlockTableRecord
  2
*D4
340
0
 70
     0
280
     1
281
     0
  0
BLOCK_RECORD
  5
239
330
1
100
AcDbSymbolTableRecord
100
AcDbBlockTableRecord
  2
*D5
340
0
 70
     0
280
     1
281
     0
  0
BLOCK_RECORD
  5
246
330
1
100
AcDbSymbolTableRecord
100
AcDbBlockTableRecord
  2
*D6
340
0
 70
     0
280
     1
281
     0
  0
BLOCK_RECORD
  5
253
330
1
100
AcDbSymbolTableRecord
100
AcDbBlockTableRecord
  2
*D7
340
0
 70
     0
280
     1
281
     0
  0
BLOCK_RECORD
  5
261
330
1
100
AcDbSymbolTableRecord
100
AcDbBlockTableRecord
  2
*D8
340
0
 70
     0
280
     1
281
     0
  0
BLOCK_RECORD
  5
26E
330
1
100
AcDbSymbolTableRecord
100
AcDbBlockTableRecord
  2
*D9
340
0
 70
     0
280
     1
281
     0
  0
BLOCK_RECORD
  5
27B
330
1
100
AcDbSymbolTableRecord
100
AcDbBlockTableRecord
  2
*D10
340
0
 70
     0
280
     1
281
     0
  0
BLOCK_RECORD
  5
288
330
1
100
AcDbSymbolTableRecord
100
AcDbBlockTableRecord
  2
*D11
340
0
 70
     0
280
     1
281
     0
  0
BLOCK_RECORD
  5
296
330
1
100
AcDbSymbolTableRecord
100
AcDbBlockTableRecord
  2
*D12
340
0
 70
     0
280
     1
281
     0
  0
BLOCK_RECORD
  5
2A3
330
1
100
AcDbSymbolTableRecord
100
AcDbBlockTableRecord
  2
*D13
340
0
 70
     0
280
     1
281
     0
  0
BLOCK_RECORD
  5
2B0
330
1
100
AcDbSymbolTableRecord
100
AcDbBlockTableRecord
  2
*D14
340
0
 70
     0
280
     1
281
     0
  0
BLOCK_RECORD
  5
2BD
330
1
100
AcDbSymbolTableRecord
100
AcDbBlockTableRecord
  2
*D15
340
0
 70
     0
280
     1
281
     0
  0
BLOCK_RECORD
  5
2CA
330
1
100
AcDbSymbolTableRecord
100
AcDbBlockTableRecord
  2
*D16
340
0
 70
     0
280
     1
281
     0
  0
BLOCK_RECORD
  5
2D8
330
1
100
AcDbSymbolTableRecord
100
AcDbBlockTableRecord
  2
*D17
340
0
 70
     0
280
     1
281
     0
  0
BLOCK_RECORD
  5
2E5
330
1
100
AcDbSymbolTableRecord
100
AcDbBlockTableRecord
  2
*D18
340
0
 70
     0
280
     1
281
     0
  0
BLOCK_RECORD
  5
2F2
330
1
100
AcDbSymbolTableRecord
100
AcDbBlockTableRecord
  2
*D19
340
0
 70
     0
280
     1
281
     0
  0
BLOCK_RECORD
  5
300
330
1
100
AcDbSymbolTableRecord
100
AcDbBlockTableRecord
  2
*D20
340
0
 70
     0
280
     1
281
     0
  0
ENDTAB
  0
ENDSEC
  0
SECTION
  2
BLOCKS
  0
BLOCK
  5
20
330
1F
100
AcDbEntity
  8
0
100
AcDbBlockBegin
  2
*Model_Space
 70
     0
 10
0.0
 20
0.0
 30
0.0
  3
*Model_Space
  1

  0
ENDBLK
  5
21
330
1F
100
AcDbEntity
  8
0
100
AcDbBlockEnd
  0
BLOCK
  5
1C
330
1B
100
AcDbEntity
 67
     1
  8
0
100
AcDbBlockBegin
  2
*Paper_Space
 70
     0
 10
0.0
 20
0.0
 30
0.0
  3
*Paper_Space
  1

  0
ENDBLK
  5
1D
330
1B
100
AcDbEntity
 67
     1
  8
0
100
AcDbBlockEnd
  0
BLOCK
  5
24
330
23
100
AcDbEntity
  8
0
100
AcDbBlockBegin
  2
*Paper_Space0
 70
     0
 10
0.0
 20
0.0
 30
0.0
  3
*Paper_Space0
  1

  0
ENDBLK
  5
25
330
23
100
AcDbEntity
  8
0
100
AcDbBlockEnd
  0
BLOCK
  5
A5
330
A4
100
AcDbEntity
  8
0
100
AcDbBlockBegin
  2
_ArchTick
 70
     0
 10
0.0
 20
0.0
 30
0.0
  3
_ArchTick
  1

  0
LWPOLYLINE
  5
A7
330
A4
100
AcDbEntity
  8
0
  6
ByBlock
 62
     0
100
AcDbPolyline
 90
        2
 70
     0
 43
0.15
 10
-0.5
 20
-0.5
 10
0.5
 20
0.5
  0
ENDBLK
  5
A6
330
A4
100
AcDbEntity
  8
0
100
AcDbBlockEnd
  0
BLOCK
  5
AA
330
A9
100
AcDbEntity
  8
0
100
AcDbBlockBegin
  2
*D2
 70
     1
 10
0.0
 20
0.0
 30
0.0
  3
*D2
  1

  0
LINE
  5
AC
330
A9
100
AcDbEntity
  8
Dimensioni
 62
     0
370
    -2
100
AcDbLine
 10
507.5
 20
583.0
 30
0.0
 11
435.0
 21
583.0
 31
0.0
  0
LINE
  5
AD
330
A9
100
AcDbEntity
  8
Dimensioni
 62
     0
370
    -2
100
AcDbLine
 10
537.5436999271667
 20
0.0
 30
0.0
 11
434.9999999999999
 21
0.0
 31
0.0
  0
LINE
  5
AE
330
A9
100
AcDbEntity
  8
Dimensioni
 62
     0
370
    -2
100
AcDbLine
 10
440.0
 20
583.0
 30
0.0
 11
439.9999999999999
 21
0.0
 31
0.0
  0
INSERT
  5
AF
330
A9
100
AcDbEntity
  8
Dimensioni
 62
     0
370
    -2
100
AcDbBlockReference
  2
_ArchTick
 10
440.0
 20
583.0
 30
0.0
 41
10.0
 42
10.0
 43
10.0
 50
90.0
  0
INSERT
  5
B0
330
A9
100
AcDbEntity
  8
Dimensioni
 62
     0
370
    -2
100
AcDbBlockReference
  2
_ArchTick
 10
439.9999999999999
 20
0.0
 30
0.0
 41
10.0
 42
10.0
 43
10.0
 50
270.0
  0
MTEXT
  5
B1
330
A9
100
AcDbEntity
  8
Dimensioni
 62
     0
100
AcDbMText
 10
426.25
 20
291.5
 30
0.0
 40
17.5
 41
0.0
 46
0.0
 71
     5
 72
     1
  1
\A1;583.0
  7
Arial Regular
 11
9.750157609057978E-17
 21
1.0
 31
0.0
 73
     1
 44
1.0
  0
POINT
  5
B2
330
A9
100
AcDbEntity
  8
Defpoints
 62
     0
100
AcDbPoint
 10
510.0
 20
583.0
 30
0.0
  0
POINT
  5
B3
330
A9
100
AcDbEntity
  8
Defpoints
 62
     0
100
AcDbPoint
 10
540.0436999271667
 20
0.0
 30
0.0
  0
POINT
  5
B4
330
A9
100
AcDbEntity
  8
Defpoints
 62
     0
100
AcDbPoint
 10
439.9999999999999
 20
0.0
 30
0.0
  0
ENDBLK
  5
AB
330
A9
100
AcDbEntity
  8
0
100
AcDbBlockEnd
  0
BLOCK
  5
1C0
330
1BF
100
AcDbEntity
  8
0
100
AcDbBlockBegin
  2
*D3
 70
     1
 10
0.0
 20
0.0
 30
0.0
  3
*D3
  1

  0
LINE
  5
1C2
330
1BF
100
AcDbEntity
  8
Dimensioni
 62
     0
370
    -2
100
AcDbLine
 10
11197.5
 20
597.0
 30
0.0
 11
11269.5
 21
597.0
 31
0.0
  0
LINE
  5
1C3
330
1BF
100
AcDbEntity
  8
Dimensioni
 62
     0
370
    -2
100
AcDbLine
 10
11197.0
 20
0.0
 30
0.0
 11
11269.5
 21
0.0
 31
0.0
  0
LINE
  5
1C4
330
1BF
100
AcDbEntity
  8
Dimensioni
 62
     0
370
    -2
100
AcDbLine
 10
11264.5
 20
597.0
 30
0.0
 11
11264.5
 21
0.0
 31
0.0
  0
INSERT
  5
1C5
330
1BF
100
AcDbEntity
  8
Dimensioni
 62
     0
370
    -2
100
AcDbBlockReference
  2
_ArchTick
 10
11264.5
 20
597.0
 30
0.0
 41
10.0
 42
10.0
 43
10.0
 50
90.0
  0
INSERT
  5
1C6
330
1BF
100
AcDbEntity
  8
Dimensioni
 62
     0
370
    -2
100
AcDbBlockReference
  2
_ArchTick
 10
11264.5
 20
0.0
 30
0.0
 41
10.0
 42
10.0
 43
10.0
 50
270.0
  0
MTEXT
  5
1C7
330
1BF
100
AcDbEntity
  8
Dimensioni
 62
     0
100
AcDbMText
 10
11250.75
 20
298.5
 30
0.0
 40
17.5
 41
0.0
 46
0.0
 71
     5
 72
     1
  1
\A1;597.0
  7
Arial Regular
 11
0.0
 21
1.0
 31
0.0
 73
     1
 44
1.0
  0
POINT
  5
1C8
330
1BF
100
AcDbEntity
  8
Defpoints
 62
     0
100
AcDbPoint
 10
11195.0
 20
597.0
 30
0.0
  0
POINT
  5
1C9
330
1BF
100
AcDbEntity
  8
Defpoints
 62
     0
100
AcDbPoint
 10
11194.5
 20
0.0
 30
0.0
  0
POINT
  5
1CA
330
1BF
100
AcDbEntity
  8
Defpoints
 62
     0
100
AcDbPoint
 10
11264.5
 20
0.0
 30
0.0
  0
ENDBLK
  5
1C1
330
1BF
100
AcDbEntity
  8
0
100
AcDbBlockEnd
  0
BLOCK
  5
22D
330
22C
100
AcDbEntity
  8
0
100
AcDbBlockBegin
  2
*D4
 70
     1
 10
0.0
 20
0.0
 30
0.0
  3
*D4
  1

  0
LINE
  5
22F
330
22C
100
AcDbEntity
  8
0
 62
     0
370
    -2
100
AcDbLine
 10
510.0
 20
585.5
 30
0.0
 11
510.0
 21
638.0
 31
0.0
  0
LINE
  5
230
330
22C
100
AcDbEntity
  8
0
 62
     0
370
    -2
100
AcDbLine
 10
1060.0
 20
585.5
 30
0.0
 11
1060.0
 21
638.0
 31
0.0
  0
LINE
  5
231
330
22C
100
AcDbEntity
  8
0
 62
     0
370
    -2
100
AcDbLine
 10
510.0
 20
633.0
 30
0.0
 11
1060.0
 21
633.0
 31
0.0
  0
INSERT
  5
232
330
22C
100
AcDbEntity
  8
0
 62
     0
370
    -2
100
AcDbBlockReference
  2
_ArchTick
 10
510.0
 20
633.0
 30
0.0
 41
10.0
 42
10.0
 43
10.0
 50
180.0
  0
INSERT
  5
233
330
22C
100
AcDbEntity
  8
0
 62
     0
370
    -2
100
AcDbBlockReference
  2
_ArchTick
 10
1060.0
 20
633.0
 30
0.0
 41
10.0
 42
10.0
 43
10.0
  0
MTEXT
  5
234
330
22C
100
AcDbEntity
  8
0
 62
     0
100
AcDbMText
 10
785.0
 20
646.75
 30
0.0
 40
17.5
 41
0.0
 46
0.0
 71
     5
 72
     1
  1
\A1;550.0
  7
Arial Regular
 73
     1
 44
1.0
  0
POINT
  5
235
330
22C
100
AcDbEntity
  8
Defpoints
 62
     0
100
AcDbPoint
 10
510.0
 20
583.0
 30
0.0
  0
POINT
  5
236
330
22C
100
AcDbEntity
  8
Defpoints
 62
     0
100
AcDbPoint
 10
1060.0
 20
583.0
 30
0.0
  0
POINT
  5
237
330
22C
100
AcDbEntity
  8
Defpoints
 62
     0
100
AcDbPoint
 10
1060.0
 20
633.0
 30
0.0
  0
ENDBLK
  5
22E
330
22C
100
AcDbEntity
  8
0
100
AcDbBlockEnd
  0
BLOCK
  5
23A
330
239
100
AcDbEntity
  8
0
100
AcDbBlockBegin
  2
*D5
 70
     1
 10
0.0
 20
0.0
 30
0.0
  3
*D5
  1

  0
LINE
  5
23C
330
239
100
AcDbEntity
  8
0
 62
     0
370
    -2
100
AcDbLine
 10
10600.0
 20
-2.5
 30
0.0
 11
10600.0
 21
-65.0
 31
0.0
  0
LINE
  5
23D
330
239
100
AcDbEntity
  8
0
 62
     0
370
    -2
100
AcDbLine
 10
11195.0
 20
-2.5
 30
0.0
 11
11195.0
 21
-65.0
 31
0.0
  0
LINE
  5
23E
330
239
100
AcDbEntity
  8
0
 62
     0
370
    -2
100
AcDbLine
 10
10600.0
 20
-60.0
 30
0.0
 11
11195.0
 21
-60.0
 31
0.0
  0
INSERT
  5
23F
330
239
100
AcDbEntity
  8
0
 62
     0
370
    -2
100
AcDbBlockReference
  2
_ArchTick
 10
10600.0
 20
-60.0
 30
0.0
 41
10.0
 42
10.0
 43
10.0
 50
180.0
  0
INSERT
  5
240
330
239
100
AcDbEntity
  8
0
 62
     0
370
    -2
100
AcDbBlockReference
  2
_ArchTick
 10
11195.0
 20
-60.0
 30
0.0
 41
10.0
 42
10.0
 43
10.0
  0
MTEXT
  5
241
330
239
100
AcDbEntity
  8
0
 62
     0
100
AcDbMText
 10
10897.5
 20
-46.25
 30
0.0
 40
17.5
 41
0.0
 46
0.0
 71
     5
 72
     1
  1
\A1;595.0
  7
Arial Regular
 73
     1
 44
1.0
  0
POINT
  5
242
330
239
100
AcDbEntity
  8
Defpoints
 62
     0
100
AcDbPoint
 10
10600.0
 20
0.0
 30
0.0
  0
POINT
  5
243
330
239
100
AcDbEntity
  8
Defpoints
 62
     0
100
AcDbPoint
 10
11195.0
 20
0.0
 30
0.0
  0
POINT
  5
244
330
239
100
AcDbEntity
  8
Defpoints
 62
     0
100
AcDbPoint
 10
11195.0
 20
-60.0
 30
0.0
  0
ENDBLK
  5
23B
330
239
100
AcDbEntity
  8
0
100
AcDbBlockEnd
  0
BLOCK
  5
247
330
246
100
AcDbEntity
  8
0
100
AcDbBlockBegin
  2
*D6
 70
     1
 10
0.0
 20
0.0
 30
0.0
  3
*D6
  1

  0
LINE
  5
249
330
246
100
AcDbEntity
  8
Dimensioni
 62
     0
370
    -2
100
AcDbLine
 10
10597.5
 20
0.0
 30
0.0
 11
10535.0
 21
0.0
 31
0.0
  0
LINE
  5
24A
330
246
100
AcDbEntity
  8
Dimensioni
 62
     0
370
    -2
100
AcDbLine
 10
10597.5
 20
457.0
 30
0.0
 11
10535.0
 21
457.0
 31
0.0
  0
LINE
  5
24B
330
246
100
AcDbEntity
  8
Dimensioni
 62
     0
370
    -2
100
AcDbLine
 10
10540.0
 20
0.0
 30
0.0
 11
10540.0
 21
457.0
 31
0.0
  0
INSERT
  5
24C
330
246
100
AcDbEntity
  8
Dimensioni
 62
     0
370
    -2
100
AcDbBlockReference
  2
_ArchTick
 10
10540.0
 20
0.0
 30
0.0
 41
10.0
 42
10.0
 43
10.0
 50
270.0
  0
INSERT
  5
24D
330
246
100
AcDbEntity
  8
Dimensioni
 62
     0
370
    -2
100
AcDbBlockReference
  2
_ArchTick
 10
10540.0
 20
457.0
 30
0.0
 41
10.0
 42
10.0
 43
10.0
 50
90.0
  0
MTEXT
  5
24E
330
246
100
AcDbEntity
  8
Dimensioni
 62
     0
100
AcDbMText
 10
10526.25
 20
228.5
 30
0.0
 40
17.5
 41
0.0
 46
0.0
 71
     5
 72
     1
  1
\A1;457.0
  7
Arial Regular
 11
0.0
 21
1.0
 31
0.0
 73
     1
 44
1.0
  0
POINT
  5
24F
330
246
100
AcDbEntity
  8
Defpoints
 62
     0
100
AcDbPoint
 10
10600.0
 20
0.0
 30
0.0
  0
POINT
  5
250
330
246
100
AcDbEntity
  8
Defpoints
 62
     0
100
AcDbPoint
 10
10600.0
 20
457.0
 30
0.0
  0
POINT
  5
251
330
246
100
AcDbEntity
  8
Defpoints
 62
     0
100
AcDbPoint
 10
10540.0
 20
457.0
 30
0.0
  0
ENDBLK
  5
248
330
246
100
AcDbEntity
  8
0
100
AcDbBlockEnd
  0
BLOCK
  5
254
330
253
100
AcDbEntity
  8
0
100
AcDbBlockBegin
  2
*D7
 70
     1
 10
0.0
 20
0.0
 30
0.0
  3
*D7
  1

  0
LINE
  5
256
330
253
100
AcDbEntity
  8
Dimensioni
 62
     0
370
    -2
100
AcDbLine
 10
10597.5
 20
517.0
 30
0.0
 11
10535.0
 21
517.0
 31
0.0
  0
LINE
  5
257
330
253
100
AcDbEntity
  8
Dimensioni
 62
     0
370
    -2
100
AcDbLine
 10
10597.5
 20
457.0
 30
0.0
 11
10535.0
 21
457.0
 31
0.0
  0
LINE
  5
258
330
253
100
AcDbEntity
  8
Dimensioni
 62
     0
370
    -2
100
AcDbLine
 10
10540.0
 20
457.0
 30
0.0
 11
10540.0
 21
384.5
 31
0.0
  0
LINE
  5
259
330
253
100
AcDbEntity
  8
Dimensioni
 62
     0
370
    -2
100
AcDbLine
 10
10540.0
 20
517.0
 30
0.0
 11
10540.0
 21
457.0
 31
0.0
  0
INSERT
  5
25A
330
253
100
AcDbEntity
  8
Dimensioni
 62
     0
370
    -2
100
AcDbBlockReference
  2
_ArchTick
 10
10540.0
 20
517.0
 30
0.0
 41
10.0
 42
10.0
 43
10.0
 50
90.0
  0
INSERT
  5
25B
330
253
100
AcDbEntity
  8
Dimensioni
 62
     0
370
    -2
100
AcDbBlockReference
  2
_ArchTick
 10
10540.0
 20
457.0
 30
0.0
 41
10.0
 42
10.0
 43
10.0
 50
270.0
  0
MTEXT
  5
25C
330
253
100
AcDbEntity
  8
Dimensioni
 62
     0
100
AcDbMText
 10
10526.25
 20
415.75
 30
0.0
 40
17.5
 41
0.0
 46
0.0
 71
     5
 72
     1
  1
\A1;60.0
  7
Arial Regular
 11
0.0
 21
1.0
 31
0.0
 73
     1
 44
1.0
  0
POINT
  5
25D
330
253
100
AcDbEntity
  8
Defpoints
 62
     0
100
AcDbPoint
 10
10600.0
 20
517.0
 30
0.0
  0
POINT
  5
25E
330
253
100
AcDbEntity
  8
Defpoints
 62
     0
100
AcDbPoint
 10
10600.0
 20
457.0
 30
0.0
  0
POINT
  5
25F
330
253
100
AcDbEntity
  8
Defpoints
 62
     0
100
AcDbPoint
 10
10540.0
 20
457.0
 30
0.0
  0
ENDBLK
  5
255
330
253
100
AcDbEntity
  8
0
100
AcDbBlockEnd
  0
BLOCK
  5
262
330
261
100
AcDbEntity
  8
0
100
AcDbBlockBegin
  2
*D8
 70
     1
 10
0.0
 20
0.0
 30
0.0
  3
*D8
  1

  0
LINE
  5
264
330
261
100
AcDbEntity
  8
Dimensioni
 62
     0
370
    -2
100
AcDbLine
 10
10597.5
 20
597.0
 30
0.0
 11
10535.0
 21
597.0
 31
0.0
  0
LINE
  5
265
330
261
100
AcDbEntity
  8
Dimensioni
 62
     0
370
    -2
100
AcDbLine
 10
10597.5
 20
517.0
 30
0.0
 11
10535.0
 21
517.0
 31
0.0
  0
LINE
  5
266
330
261
100
AcDbEntity
  8
Dimensioni
 62
     0
370
    -2
100
AcDbLine
 10
10540.0
 20
597.0
 30
0.0
 11
10540.0
 21
517.0
 31
0.0
  0
INSERT
  5
267
330
261
100
AcDbEntity
  8
Dimensioni
 62
     0
370
    -2
100
AcDbBlockReference
  2
_ArchTick
 10
10540.0
 20
597.0
 30
0.0
 41
10.0
 42
10.0
 43
10.0
 50
90.0
  0
INSERT
  5
268
330
261
100
AcDbEntity
  8
Dimensioni
 62
     0
370
    -2
100
AcDbBlockReference
  2
_ArchTick
 10
10540.0
 20
517.0
 30
0.0
 41
10.0
 42
10.0
 43
10.0
 50
270.0
  0
MTEXT
  5
269
330
261
100
AcDbEntity
  8
Dimensioni
 62
     0
100
AcDbMText
 10
10526.25
 20
557.0
 30
0.0
 40
17.5
 41
0.0
 46
0.0
 71
     5
 72
     1
  1
\A1;80.0
  7
Arial Regular
 11
0.0
 21
1.0
 31
0.0
 73
     1
 44
1.0
  0
POINT
  5
26A
330
261
100
AcDbEntity
  8
Defpoints
 62
     0
100
AcDbPoint
 10
10600.0
 20
597.0
 30
0.0
  0
POINT
  5
26B
330
261
100
AcDbEntity
  8
Defpoints
 62
     0
100
AcDbPoint
 10
10600.0
 20
517.0
 30
0.0
  0
POINT
  5
26C
330
261
100
AcDbEntity
  8
Defpoints
 62
     0
100
AcDbPoint
 10
10540.0
 20
517.0
 30
0.0
  0
ENDBLK
  5
263
330
261
100
AcDbEntity
  8
0
100
AcDbBlockEnd
  0
BLOCK
  5
26F
330
26E
100
AcDbEntity
  8
0
100
AcDbBlockBegin
  2
*D9
 70
     1
 10
0.0
 20
0.0
 30
0.0
  3
*D9
  1

  0
LINE
  5
271
330
26E
100
AcDbEntity
  8
Dimensioni
 62
     0
370
    -2
100
AcDbLine
 10
10600.0
 20
462.5
 30
0.0
 11
10600.0
 21
529.5
 31
0.0
  0
LINE
  5
272
330
26E
100
AcDbEntity
  8
Dimensioni
 62
     0
370
    -2
100
AcDbLine
 10
11195.0
 20
462.5
 30
0.0
 11
11195.0
 21
529.5
 31
0.0
  0
LINE
  5
273
330
26E
100
AcDbEntity
  8
Dimensioni
 62
     0
370
    -2
100
AcDbLine
 10
10600.0
 20
524.5
 30
0.0
 11
11195.0
 21
524.5
 31
0.0
  0
INSERT
  5
274
330
26E
100
AcDbEntity
  8
Dimensioni
 62
     0
370
    -2
100
AcDbBlockReference
  2
_ArchTick
 10
10600.0
 20
524.5
 30
0.0
 41
10.0
 42
10.0
 43
10.0
 50
180.0
  0
INSERT
  5
275
330
26E
100
AcDbEntity
  8
Dimensioni
 62
     0
370
    -2
100
AcDbBlockReference
  2
_ArchTick
 10
11195.0
 20
524.5
 30
0.0
 41
10.0
 42
10.0
 43
10.0
  0
MTEXT
  5
276
330
26E
100
AcDbEntity
  8
Dimensioni
 62
     0
100
AcDbMText
 10
10897.5
 20
538.25
 30
0.0
 40
17.5
 41
0.0
 46
0.0
 71
     5
 72
     1
  1
\A1;595.0
  7
Arial Regular
 73
     1
 44
1.0
  0
POINT
  5
277
330
26E
100
AcDbEntity
  8
Defpoints
 62
     0
100
AcDbPoint
 10
10600.0
 20
460.0
 30
0.0
  0
POINT
  5
278
330
26E
100
AcDbEntity
  8
Defpoints
 62
     0
100
AcDbPoint
 10
11195.0
 20
460.0
 30
0.0
  0
POINT
  5
279
330
26E
100
AcDbEntity
  8
Defpoints
 62
     0
100
AcDbPoint
 10
11195.0
 20
524.5
 30
0.0
  0
ENDBLK
  5
270
330
26E
100
AcDbEntity
  8
0
100
AcDbBlockEnd
  0
BLOCK
  5
27C
330
27B
100
AcDbEntity
  8
0
100
AcDbBlockBegin
  2
*D10
 70
     1
 10
0.0
 20
0.0
 30
0.0
  3
*D10
  1

  0
LINE
  5
27E
330
27B
100
AcDbEntity
  8
0
 62
     0
370
    -2
100
AcDbLine
 10
10618.5
 20
-508.3
 30
0.0
 11
10618.5
 21
-455.0
 31
0.0
  0
LINE
  5
27F
330
27B
100
AcDbEntity
  8
0
 62
     0
370
    -2
100
AcDbLine
 10
11176.5
 20
-508.3
 30
0.0
 11
11176.5
 21
-455.0
 31
0.0
  0
LINE
  5
280
330
27B
100
AcDbEntity
  8
0
 62
     0
370
    -2
100
AcDbLine
 10
10618.5
 20
-460.0
 30
0.0
 11
11176.5
 21
-460.0
 31
0.0
  0
INSERT
  5
281
330
27B
100
AcDbEntity
  8
0
 62
     0
370
    -2
100
AcDbBlockReference
  2
_ArchTick
 10
10618.5
 20
-460.0
 30
0.0
 41
10.0
 42
10.0
 43
10.0
 50
180.0
  0
INSERT
  5
282
330
27B
100
AcDbEntity
  8
0
 62
     0
370
    -2
100
AcDbBlockReference
  2
_ArchTick
 10
11176.5
 20
-460.0
 30
0.0
 41
10.0
 42
10.0
 43
10.0
  0
MTEXT
  5
283
330
27B
100
AcDbEntity
  8
0
 62
     0
100
AcDbMText
 10
10897.5
 20
-446.25
 30
0.0
 40
17.5
 41
0.0
 46
0.0
 71
     5
 72
     1
  1
\A1;558.0
  7
Arial Regular
 73
     1
 44
1.0
  0
POINT
  5
284
330
27B
100
AcDbEntity
  8
Defpoints
 62
     0
100
AcDbPoint
 10
10618.5
 20
-510.8
 30
0.0
  0
POINT
  5
285
330
27B
100
AcDbEntity
  8
Defpoints
 62
     0
100
AcDbPoint
 10
11176.5
 20
-510.8
 30
0.0
  0
POINT
  5
286
330
27B
100
AcDbEntity
  8
Defpoints
 62
     0
100
AcDbPoint
 10
11176.5
 20
-460.0
 30
0.0
  0
ENDBLK
  5
27D
330
27B
100
AcDbEntity
  8
0
100
AcDbBlockEnd
  0
BLOCK
  5
289
330
288
100
AcDbEntity
  8
0
100
AcDbBlockBegin
  2
*D11
 70
     1
 10
0.0
 20
0.0
 30
0.0
  3
*D11
  1

  0
LINE
  5
28B
330
288
100
AcDbEntity
  8
Dimensioni
 62
     0
370
    -2
100
AcDbLine
 10
10598.0
 20
-1060.0
 30
0.0
 11
10555.0
 21
-1060.0
 31
0.0
  0
LINE
  5
28C
330
288
100
AcDbEntity
  8
Dimensioni
 62
     0
370
    -2
100
AcDbLine
 10
10598.0
 20
-1083.4
 30
0.0
 11
10555.0
 21
-1083.4
 31
0.0
  0
LINE
  5
28D
330
288
100
AcDbEntity
  8
Dimensioni
 62
     0
370
    -2
100
AcDbLine
 10
10560.0
 20
-1083.4
 30
0.0
 11
10560.0
 21
-1157.566666666668
 31
0.0
  0
LINE
  5
28E
330
288
100
AcDbEntity
  8
Dimensioni
 62
     0
370
    -2
100
AcDbLine
 10
10560.0
 20
-1060.0
 30
0.0
 11
10560.0
 21
-1083.4
 31
0.0
  0
INSERT
  5
28F
330
288
100
AcDbEntity
  8
Dimensioni
 62
     0
370
    -2
100
AcDbBlockReference
  2
_ArchTick
 10
10560.0
 20
-1060.0
 30
0.0
 41
10.0
 42
10.0
 43
10.0
 50
90.0
  0
INSERT
  5
290
330
288
100
AcDbEntity
  8
Dimensioni
 62
     0
370
    -2
100
AcDbBlockReference
  2
_ArchTick
 10
10560.0
 20
-1083.4
 30
0.0
 41
10.0
 42
10.0
 43
10.0
 50
270.0
  0
MTEXT
  5
291
330
288
100
AcDbEntity
  8
Dimensioni
 62
     0
100
AcDbMText
 10
10546.25
 20
-1125.483333333334
 30
0.0
 40
17.5
 41
0.0
 46
0.0
 71
     5
 72
     1
  1
\A1;23.4
  7
Arial Regular
 11
0.0
 21
1.0
 31
0.0
 73
     1
 44
1.0
  0
POINT
  5
292
330
288
100
AcDbEntity
  8
Defpoints
 62
     0
100
AcDbPoint
 10
10600.5
 20
-1060.0
 30
0.0
  0
POINT
  5
293
330
288
100
AcDbEntity
  8
Defpoints
 62
     0
100
AcDbPoint
 10
10600.5
 20
-1083.4
 30
0.0
  0
POINT
  5
294
330
288
100
AcDbEntity
  8
Defpoints
 62
     0
100
AcDbPoint
 10
10560.0
 20
-1083.4
 30
0.0
  0
ENDBLK
  5
28A
330
288
100
AcDbEntity
  8
0
100
AcDbBlockEnd
  0
BLOCK
  5
297
330
296
100
AcDbEntity
  8
0
100
AcDbBlockBegin
  2
*D12
 70
     1
 10
0.0
 20
0.0
 30
0.0
  3
*D12
  1

  0
LINE
  5
299
330
296
100
AcDbEntity
  8
Dimensioni
 62
     0
370
    -2
100
AcDbLine
 10
10616.0
 20
-510.0
 30
0.0
 11
10555.0
 21
-510.0
 31
0.0
  0
LINE
  5
29A
330
296
100
AcDbEntity
  8
Dimensioni
 62
     0
370
    -2
100
AcDbLine
 10
10607.5
 20
-1060.0
 30
0.0
 11
10555.0
 21
-1060.0
 31
0.0
  0
LINE
  5
29B
330
296
100
AcDbEntity
  8
Dimensioni
 62
     0
370
    -2
100
AcDbLine
 10
10560.0
 20
-510.0
 30
0.0
 11
10560.0
 21
-1060.0
 31
0.0
  0
INSERT
  5
29C
330
296
100
AcDbEntity
  8
Dimensioni
 62
     0
370
    -2
100
AcDbBlockReference
  2
_ArchTick
 10
10560.0
 20
-510.0
 30
0.0
 41
10.0
 42
10.0
 43
10.0
 50
90.0
  0
INSERT
  5
29D
330
296
100
AcDbEntity
  8
Dimensioni
 62
     0
370
    -2
100
AcDbBlockReference
  2
_ArchTick
 10
10560.0
 20
-1060.0
 30
0.0
 41
10.0
 42
10.0
 43
10.0
 50
270.0
  0
MTEXT
  5
29E
330
296
100
AcDbEntity
  8
Dimensioni
 62
     0
100
AcDbMText
 10
10546.25
 20
-785.0
 30
0.0
 40
17.5
 41
0.0
 46
0.0
 71
     5
 72
     1
  1
\A1;550.0
  7
Arial Regular
 11
0.0
 21
1.0
 31
0.0
 73
     1
 44
1.0
  0
POINT
  5
29F
330
296
100
AcDbEntity
  8
Defpoints
 62
     0
100
AcDbPoint
 10
10618.5
 20
-510.0
 30
0.0
  0
POINT
  5
2A0
330
296
100
AcDbEntity
  8
Defpoints
 62
     0
100
AcDbPoint
 10
10610.0
 20
-1060.0
 30
0.0
  0
POINT
  5
2A1
330
296
100
AcDbEntity
  8
Defpoints
 62
     0
100
AcDbPoint
 10
10560.0
 20
-1060.0
 30
0.0
  0
ENDBLK
  5
298
330
296
100
AcDbEntity
  8
0
100
AcDbBlockEnd
  0
BLOCK
  5
2A4
330
2A3
100
AcDbEntity
  8
0
100
AcDbBlockBegin
  2
*D13
 70
     1
 10
0.0
 20
0.0
 30
0.0
  3
*D13
  1

  0
LINE
  5
2A6
330
2A3
100
AcDbEntity
  8
0
 62
     0
370
    -2
100
AcDbLine
 10
11179.0
 20
-510.0
 30
0.0
 11
11241.5
 21
-510.0
 31
0.0
  0
LINE
  5
2A7
330
2A3
100
AcDbEntity
  8
0
 62
     0
370
    -2
100
AcDbLine
 10
11197.0
 20
-1083.4
 30
0.0
 11
11241.5
 21
-1083.4
 31
0.0
  0
LINE
  5
2A8
330
2A3
100
AcDbEntity
  8
0
 62
     0
370
    -2
100
AcDbLine
 10
11236.5
 20
-510.0
 30
0.0
 11
11236.5
 21
-1083.4
 31
0.0
  0
INSERT
  5
2A9
330
2A3
100
AcDbEntity
  8
0
 62
     0
370
    -2
100
AcDbBlockReference
  2
_ArchTick
 10
11236.5
 20
-510.0
 30
0.0
 41
10.0
 42
10.0
 43
10.0
 50
90.0
  0
INSERT
  5
2AA
330
2A3
100
AcDbEntity
  8
0
 62
     0
370
    -2
100
AcDbBlockReference
  2
_ArchTick
 10
11236.5
 20
-1083.4
 30
0.0
 41
10.0
 42
10.0
 43
10.0
 50
270.0
  0
MTEXT
  5
2AB
330
2A3
100
AcDbEntity
  8
0
 62
     0
100
AcDbMText
 10
11222.75
 20
-796.6999999999999
 30
0.0
 40
17.5
 41
0.0
 46
0.0
 71
     5
 72
     1
  1
\A1;573.4
  7
Arial Regular
 11
0.0
 21
1.0
 31
0.0
 73
     1
 44
1.0
  0
POINT
  5
2AC
330
2A3
100
AcDbEntity
  8
Defpoints
 62
     0
100
AcDbPoint
 10
11176.5
 20
-510.0
 30
0.0
  0
POINT
  5
2AD
330
2A3
100
AcDbEntity
  8
Defpoints
 62
     0
100
AcDbPoint
 10
11194.5
 20
-1083.4
 30
0.0
  0
POINT
  5
2AE
330
2A3
100
AcDbEntity
  8
Defpoints
 62
     0
100
AcDbPoint
 10
11236.5
 20
-1083.4
 30
0.0
  0
ENDBLK
  5
2A5
330
2A3
100
AcDbEntity
  8
0
100
AcDbBlockEnd
  0
BLOCK
  5
2B1
330
2B0
100
AcDbEntity
  8
0
100
AcDbBlockBegin
  2
*D14
 70
     1
 10
0.0
 20
0.0
 30
0.0
  3
*D14
  1

  0
LINE
  5
2B3
330
2B0
100
AcDbEntity
  8
0
 62
     0
370
    -2
100
AcDbLine
 10
11195.0
 20
-1085.9
 30
0.0
 11
11195.0
 21
-1148.4
 31
0.0
  0
LINE
  5
2B4
330
2B0
100
AcDbEntity
  8
0
 62
     0
370
    -2
100
AcDbLine
 10
10600.0
 20
-1085.9
 30
0.0
 11
10600.0
 21
-1148.4
 31
0.0
  0
LINE
  5
2B5
330
2B0
100
AcDbEntity
  8
0
 62
     0
370
    -2
100
AcDbLine
 10
11195.0
 20
-1143.4
 30
0.0
 11
10600.0
 21
-1143.4
 31
0.0
  0
INSERT
  5
2B6
330
2B0
100
AcDbEntity
  8
0
 62
     0
370
    -2
100
AcDbBlockReference
  2
_ArchTick
 10
11195.0
 20
-1143.4
 30
0.0
 41
10.0
 42
10.0
 43
10.0
  0
INSERT
  5
2B7
330
2B0
100
AcDbEntity
  8
0
 62
     0
370
    -2
100
AcDbBlockReference
  2
_ArchTick
 10
10600.0
 20
-1143.4
 30
0.0
 41
10.0
 42
10.0
 43
10.0
 50
180.0
  0
MTEXT
  5
2B8
330
2B0
100
AcDbEntity
  8
0
 62
     0
100
AcDbMText
 10
10897.5
 20
-1129.65
 30
0.0
 40
17.5
 41
0.0
 46
0.0
 71
     5
 72
     1
  1
\A1;595.0
  7
Arial Regular
 73
     1
 44
1.0
  0
POINT
  5
2B9
330
2B0
100
AcDbEntity
  8
Defpoints
 62
     0
100
AcDbPoint
 10
11195.0
 20
-1083.4
 30
0.0
  0
POINT
  5
2BA
330
2B0
100
AcDbEntity
  8
Defpoints
 62
     0
100
AcDbPoint
 10
10600.0
 20
-1083.4
 30
0.0
  0
POINT
  5
2BB
330
2B0
100
AcDbEntity
  8
Defpoints
 62
     0
100
AcDbPoint
 10
10600.0
 20
-1143.4
 30
0.0
  0
ENDBLK
  5
2B2
330
2B0
100
AcDbEntity
  8
0
100
AcDbBlockEnd
  0
BLOCK
  5
2BE
330
2BD
100
AcDbEntity
  8
0
100
AcDbBlockBegin
  2
*D15
 70
     1
 10
0.0
 20
0.0
 30
0.0
  3
*D15
  1

  0
LINE
  5
2C0
330
2BD
100
AcDbEntity
  8
0
 62
     0
370
    -2
100
AcDbLine
 10
509.9999999999999
 20
27.5
 30
0.0
 11
509.9999999999999
 21
-65.0
 31
0.0
  0
LINE
  5
2C1
330
2BD
100
AcDbEntity
  8
0
 62
     0
370
    -2
100
AcDbLine
 10
1083.4
 20
27.5
 30
0.0
 11
1083.4
 21
-65.0
 31
0.0
  0
LINE
  5
2C2
330
2BD
100
AcDbEntity
  8
0
 62
     0
370
    -2
100
AcDbLine
 10
509.9999999999999
 20
-60.0
 30
0.0
 11
1083.4
 21
-60.0
 31
0.0
  0
INSERT
  5
2C3
330
2BD
100
AcDbEntity
  8
0
 62
     0
370
    -2
100
AcDbBlockReference
  2
_ArchTick
 10
509.9999999999999
 20
-60.0
 30
0.0
 41
10.0
 42
10.0
 43
10.0
 50
180.0
  0
INSERT
  5
2C4
330
2BD
100
AcDbEntity
  8
0
 62
     0
370
    -2
100
AcDbBlockReference
  2
_ArchTick
 10
1083.4
 20
-60.0
 30
0.0
 41
10.0
 42
10.0
 43
10.0
  0
MTEXT
  5
2C5
330
2BD
100
AcDbEntity
  8
0
 62
     0
100
AcDbMText
 10
796.7
 20
-46.25
 30
0.0
 40
17.5
 41
0.0
 46
0.0
 71
     5
 72
     1
  1
\A1;573.4
  7
Arial Regular
 73
     1
 44
1.0
  0
POINT
  5
2C6
330
2BD
100
AcDbEntity
  8
Defpoints
 62
     0
100
AcDbPoint
 10
509.9999999999999
 20
30.0
 30
0.0
  0
POINT
  5
2C7
330
2BD
100
AcDbEntity
  8
Defpoints
 62
     0
100
AcDbPoint
 10
1083.4
 20
30.0
 30
0.0
  0
POINT
  5
2C8
330
2BD
100
AcDbEntity
  8
Defpoints
 62
     0
100
AcDbPoint
 10
1083.4
 20
-60.0
 30
0.0
  0
ENDBLK
  5
2BF
330
2BD
100
AcDbEntity
  8
0
100
AcDbBlockEnd
  0
BLOCK
  5
2CB
330
2CA
100
AcDbEntity
  8
0
100
AcDbBlockBegin
  2
*D16
 70
     1
 10
0.0
 20
0.0
 30
0.0
  3
*D16
  1

  0
LINE
  5
2CD
330
2CA
100
AcDbEntity
  8
0
 62
     0
370
    -2
100
AcDbLine
 10
1083.4
 20
599.5
 30
0.0
 11
1083.4
 21
638.0
 31
0.0
  0
LINE
  5
2CE
330
2CA
100
AcDbEntity
  8
0
 62
     0
370
    -2
100
AcDbLine
 10
1060.0
 20
599.5
 30
0.0
 11
1060.0
 21
638.0
 31
0.0
  0
LINE
  5
2CF
330
2CA
100
AcDbEntity
  8
0
 62
     0
370
    -2
100
AcDbLine
 10
1060.0
 20
633.0
 30
0.0
 11
985.8333333333335
 21
633.0
 31
0.0
  0
LINE
  5
2D0
330
2CA
100
AcDbEntity
  8
0
 62
     0
370
    -2
100
AcDbLine
 10
1083.4
 20
633.0
 30
0.0
 11
1060.0
 21
633.0
 31
0.0
  0
INSERT
  5
2D1
330
2CA
100
AcDbEntity
  8
0
 62
     0
370
    -2
100
AcDbBlockReference
  2
_ArchTick
 10
1083.4
 20
633.0
 30
0.0
 41
10.0
 42
10.0
 43
10.0
  0
INSERT
  5
2D2
330
2CA
100
AcDbEntity
  8
0
 62
     0
370
    -2
100
AcDbBlockReference
  2
_ArchTick
 10
1060.0
 20
633.0
 30
0.0
 41
10.0
 42
10.0
 43
10.0
 50
180.0
  0
MTEXT
  5
2D3
330
2CA
100
AcDbEntity
  8
0
 62
     0
100
AcDbMText
 10
1017.916666666667
 20
646.75
 30
0.0
 40
17.5
 41
0.0
 46
0.0
 71
     5
 72
     1
  1
\A1;23.4
  7
Arial Regular
 73
     1
 44
1.0
  0
POINT
  5
2D4
330
2CA
100
AcDbEntity
  8
Defpoints
 62
     0
100
AcDbPoint
 10
1083.4
 20
597.0
 30
0.0
  0
POINT
  5
2D5
330
2CA
100
AcDbEntity
  8
Defpoints
 62
     0
100
AcDbPoint
 10
1060.0
 20
597.0
 30
0.0
  0
POINT
  5
2D6
330
2CA
100
AcDbEntity
  8
Defpoints
 62
     0
100
AcDbPoint
 10
1060.0
 20
633.0
 30
0.0
  0
ENDBLK
  5
2CC
330
2CA
100
AcDbEntity
  8
0
100
AcDbBlockEnd
  0
BLOCK
  5
2D9
330
2D8
100
AcDbEntity
  8
0
100
AcDbBlockBegin
  2
*D17
 70
     1
 10
0.0
 20
0.0
 30
0.0
  3
*D17
  1

  0
LINE
  5
2DB
330
2D8
100
AcDbEntity
  8
Dimensioni
 62
     0
370
    -2
100
AcDbLine
 10
1085.1
 20
597.0
 30
0.0
 11
1165.0
 21
597.0
 31
0.0
  0
LINE
  5
2DC
330
2D8
100
AcDbEntity
  8
Dimensioni
 62
     0
370
    -2
100
AcDbLine
 10
1085.1
 20
517.0
 30
0.0
 11
1165.0
 21
517.0
 31
0.0
  0
LINE
  5
2DD
330
2D8
100
AcDbEntity
  8
Dimensioni
 62
     0
370
    -2
100
AcDbLine
 10
1160.0
 20
597.0
 30
0.0
 11
1160.0
 21
517.0
 31
0.0
  0
INSERT
  5
2DE
330
2D8
100
AcDbEntity
  8
Dimensioni
 62
     0
370
    -2
100
AcDbBlockReference
  2
_ArchTick
 10
1160.0
 20
597.0
 30
0.0
 41
10.0
 42
10.0
 43
10.0
 50
90.0
  0
INSERT
  5
2DF
330
2D8
100
AcDbEntity
  8
Dimensioni
 62
     0
370
    -2
100
AcDbBlockReference
  2
_ArchTick
 10
1160.0
 20
517.0
 30
0.0
 41
10.0
 42
10.0
 43
10.0
 50
270.0
  0
MTEXT
  5
2E0
330
2D8
100
AcDbEntity
  8
Dimensioni
 62
     0
100
AcDbMText
 10
1146.25
 20
557.0
 30
0.0
 40
17.5
 41
0.0
 46
0.0
 71
     5
 72
     1
  1
\A1;80.0
  7
Arial Regular
 11
0.0
 21
1.0
 31
0.0
 73
     1
 44
1.0
  0
POINT
  5
2E1
330
2D8
100
AcDbEntity
  8
Defpoints
 62
     0
100
AcDbPoint
 10
1082.6
 20
597.0
 30
0.0
  0
POINT
  5
2E2
330
2D8
100
AcDbEntity
  8
Defpoints
 62
     0
100
AcDbPoint
 10
1082.6
 20
517.0
 30
0.0
  0
POINT
  5
2E3
330
2D8
100
AcDbEntity
  8
Defpoints
 62
     0
100
AcDbPoint
 10
1160.0
 20
517.0
 30
0.0
  0
ENDBLK
  5
2DA
330
2D8
100
AcDbEntity
  8
0
100
AcDbBlockEnd
  0
BLOCK
  5
2E6
330
2E5
100
AcDbEntity
  8
0
100
AcDbBlockBegin
  2
*D18
 70
     1
 10
0.0
 20
0.0
 30
0.0
  3
*D18
  1

  0
LINE
  5
2E8
330
2E5
100
AcDbEntity
  8
0
 62
     0
370
    -2
100
AcDbLine
 10
1085.9
 20
597.0
 30
0.0
 11
1235.0
 21
597.0
 31
0.0
  0
LINE
  5
2E9
330
2E5
100
AcDbEntity
  8
0
 62
     0
370
    -2
100
AcDbLine
 10
1062.5
 20
0.0
 30
0.0
 11
1235.0
 21
0.0
 31
0.0
  0
LINE
  5
2EA
330
2E5
100
AcDbEntity
  8
0
 62
     0
370
    -2
100
AcDbLine
 10
1230.0
 20
597.0
 30
0.0
 11
1230.0
 21
0.0
 31
0.0
  0
INSERT
  5
2EB
330
2E5
100
AcDbEntity
  8
0
 62
     0
370
    -2
100
AcDbBlockReference
  2
_ArchTick
 10
1230.0
 20
597.0
 30
0.0
 41
10.0
 42
10.0
 43
10.0
 50
90.0
  0
INSERT
  5
2EC
330
2E5
100
AcDbEntity
  8
0
 62
     0
370
    -2
100
AcDbBlockReference
  2
_ArchTick
 10
1230.0
 20
0.0
 30
0.0
 41
10.0
 42
10.0
 43
10.0
 50
270.0
  0
MTEXT
  5
2ED
330
2E5
100
AcDbEntity
  8
0
 62
     0
100
AcDbMText
 10
1216.25
 20
298.5
 30
0.0
 40
17.5
 41
0.0
 46
0.0
 71
     5
 72
     1
  1
\A1;597.0
  7
Arial Regular
 11
0.0
 21
1.0
 31
0.0
 73
     1
 44
1.0
  0
POINT
  5
2EE
330
2E5
100
AcDbEntity
  8
Defpoints
 62
     0
100
AcDbPoint
 10
1083.4
 20
597.0
 30
0.0
  0
POINT
  5
2EF
330
2E5
100
AcDbEntity
  8
Defpoints
 62
     0
100
AcDbPoint
 10
1060.0
 20
0.0
 30
0.0
  0
POINT
  5
2F0
330
2E5
100
AcDbEntity
  8
Defpoints
 62
     0
100
AcDbPoint
 10
1230.0
 20
0.0
 30
0.0
  0
ENDBLK
  5
2E7
330
2E5
100
AcDbEntity
  8
0
100
AcDbBlockEnd
  0
BLOCK
  5
2F3
330
2F2
100
AcDbEntity
  8
0
100
AcDbBlockBegin
  2
*D19
 70
     1
 10
0.0
 20
0.0
 30
0.0
  3
*D19
  1

  0
LINE
  5
2F5
330
2F2
100
AcDbEntity
  8
Dimensioni
 62
     0
370
    -2
100
AcDbLine
 10
1085.1
 20
517.0
 30
0.0
 11
1165.0
 21
517.0
 31
0.0
  0
LINE
  5
2F6
330
2F2
100
AcDbEntity
  8
Dimensioni
 62
     0
370
    -2
100
AcDbLine
 10
1085.1
 20
457.0
 30
0.0
 11
1165.0
 21
457.0
 31
0.0
  0
LINE
  5
2F7
330
2F2
100
AcDbEntity
  8
Dimensioni
 62
     0
370
    -2
100
AcDbLine
 10
1160.0
 20
457.0
 30
0.0
 11
1160.0
 21
384.5
 31
0.0
  0
LINE
  5
2F8
330
2F2
100
AcDbEntity
  8
Dimensioni
 62
     0
370
    -2
100
AcDbLine
 10
1160.0
 20
517.0
 30
0.0
 11
1160.0
 21
457.0
 31
0.0
  0
INSERT
  5
2F9
330
2F2
100
AcDbEntity
  8
Dimensioni
 62
     0
370
    -2
100
AcDbBlockReference
  2
_ArchTick
 10
1160.0
 20
517.0
 30
0.0
 41
10.0
 42
10.0
 43
10.0
 50
90.0
  0
INSERT
  5
2FA
330
2F2
100
AcDbEntity
  8
Dimensioni
 62
     0
370
    -2
100
AcDbBlockReference
  2
_ArchTick
 10
1160.0
 20
457.0
 30
0.0
 41
10.0
 42
10.0
 43
10.0
 50
270.0
  0
MTEXT
  5
2FB
330
2F2
100
AcDbEntity
  8
Dimensioni
 62
     0
100
AcDbMText
 10
1146.25
 20
415.75
 30
0.0
 40
17.5
 41
0.0
 46
0.0
 71
     5
 72
     1
  1
\A1;60.0
  7
Arial Regular
 11
0.0
 21
1.0
 31
0.0
 73
     1
 44
1.0
  0
POINT
  5
2FC
330
2F2
100
AcDbEntity
  8
Defpoints
 62
     0
100
AcDbPoint
 10
1082.6
 20
517.0
 30
0.0
  0
POINT
  5
2FD
330
2F2
100
AcDbEntity
  8
Defpoints
 62
     0
100
AcDbPoint
 10
1082.6
 20
457.0
 30
0.0
  0
POINT
  5
2FE
330
2F2
100
AcDbEntity
  8
Defpoints
 62
     0
100
AcDbPoint
 10
1160.0
 20
457.0
 30
0.0
  0
ENDBLK
  5
2F4
330
2F2
100
AcDbEntity
  8
0
100
AcDbBlockEnd
  0
BLOCK
  5
301
330
300
100
AcDbEntity
  8
0
100
AcDbBlockBegin
  2
*D20
 70
     1
 10
0.0
 20
0.0
 30
0.0
  3
*D20
  1

  0
LINE
  5
303
330
300
100
AcDbEntity
  8
Dimensioni
 62
     0
370
    -2
100
AcDbLine
 10
1085.1
 20
457.0
 30
0.0
 11
1165.0
 21
457.0
 31
0.0
  0
LINE
  5
304
330
300
100
AcDbEntity
  8
Dimensioni
 62
     0
370
    -2
100
AcDbLine
 10
1062.5
 20
0.0
 30
0.0
 11
1165.0
 21
0.0
 31
0.0
  0
LINE
  5
305
330
300
100
AcDbEntity
  8
Dimensioni
 62
     0
370
    -2
100
AcDbLine
 10
1160.0
 20
457.0
 30
0.0
 11
1160.0
 21
0.0
 31
0.0
  0
INSERT
  5
306
330
300
100
AcDbEntity
  8
Dimensioni
 62
     0
370
    -2
100
AcDbBlockReference
  2
_ArchTick
 10
1160.0
 20
457.0
 30
0.0
 41
10.0
 42
10.0
 43
10.0
 50
90.0
  0
INSERT
  5
307
330
300
100
AcDbEntity
  8
Dimensioni
 62
     0
370
    -2
100
AcDbBlockReference
  2
_ArchTick
 10
1160.0
 20
0.0
 30
0.0
 41
10.0
 42
10.0
 43
10.0
 50
270.0
  0
MTEXT
  5
308
330
300
100
AcDbEntity
  8
Dimensioni
 62
     0
100
AcDbMText
 10
1146.25
 20
228.5
 30
0.0
 40
17.5
 41
0.0
 46
0.0
 71
     5
 72
     1
  1
\A1;457.0
  7
Arial Regular
 11
0.0
 21
1.0
 31
0.0
 73
     1
 44
1.0
  0
POINT
  5
309
330
300
100
AcDbEntity
  8
Defpoints
 62
     0
100
AcDbPoint
 10
1082.6
 20
457.0
 30
0.0
  0
POINT
  5
30A
330
300
100
AcDbEntity
  8
Defpoints
 62
     0
100
AcDbPoint
 10
1060.0
 20
0.0
 30
0.0
  0
POINT
  5
30B
330
300
100
AcDbEntity
  8
Defpoints
 62
     0
100
AcDbPoint
 10
1160.0
 20
0.0
 30
0.0
  0
ENDBLK
  5
302
330
300
100
AcDbEntity
  8
0
100
AcDbBlockEnd
  0
ENDSEC
  0
SECTION
  2
ENTITIES
  0
LINE
  5
70
330
1F
100
AcDbEntity
  8
Abbattitore
100
AcDbLine
 10
10624.0
 20
-1060.0
 30
419.0
 11
11171.0
 21
-1060.0
 31
419.0
  0
LINE
  5
71
330
1F
100
AcDbEntity
  8
Abbattitore
100
AcDbLine
 10
11171.0
 20
-1060.0
 30
419.0
 11
11171.0
 21
-1060.0
 31
423.0
  0
LINE
  5
72
330
1F
100
AcDbEntity
  8
Abbattitore
100
AcDbLine
 10
10624.0
 20
-1060.0
 30
423.0
 11
11171.0
 21
-1060.0
 31
423.0
  0
LINE
  5
73
330
1F
100
AcDbEntity
  8
Abbattitore
100
AcDbLine
 10
10624.0
 20
-1060.0
 30
419.0
 11
10624.0
 21
-1060.0
 31
423.0
  0
LINE
  5
74
330
1F
100
AcDbEntity
  8
Abbattitore
100
AcDbLine
 10
11171.0
 20
-1060.0
 30
419.0
 11
11171.0
 21
-514.8
 31
419.0
  0
LINE
  5
75
330
1F
100
AcDbEntity
  8
Abbattitore
100
AcDbLine
 10
11171.0
 20
-514.8
 30
419.0
 11
11171.0
 21
-514.8
 31
423.0
  0
LINE
  5
76
330
1F
100
AcDbEntity
  8
Abbattitore
100
AcDbLine
 10
11171.0
 20
-1060.0
 30
423.0
 11
11171.0
 21
-514.8
 31
423.0
  0
LINE
  5
77
330
1F
100
AcDbEntity
  8
Abbattitore
100
AcDbLine
 10
11171.0
 20
-514.8
 30
419.0
 11
10624.0
 21
-514.8
 31
419.0
  0
LINE
  5
78
330
1F
100
AcDbEntity
  8
Abbattitore
100
AcDbLine
 10
10624.0
 20
-514.8
 30
419.0
 11
10624.0
 21
-514.8
 31
423.0
  0
LINE
  5
79
330
1F
100
AcDbEntity
  8
Abbattitore
100
AcDbLine
 10
11171.0
 20
-514.8
 30
423.0
 11
10624.0
 21
-514.8
 31
423.0
  0
LINE
  5
7A
330
1F
100
AcDbEntity
  8
Abbattitore
100
AcDbLine
 10
10624.0
 20
-514.8
 30
419.0
 11
10624.0
 21
-1060.0
 31
419.0
  0
LINE
  5
7B
330
1F
100
AcDbEntity
  8
Abbattitore
100
AcDbLine
 10
10624.0
 20
-514.8
 30
423.0
 11
10624.0
 21
-1060.0
 31
423.0
  0
LINE
  5
7C
330
1F
100
AcDbEntity
  8
Abbattitore
100
AcDbLine
 10
10624.0
 20
-1060.0
 30
421.0
 11
11171.0
 21
-1060.0
 31
421.0
  0
LINE
  5
7D
330
1F
100
AcDbEntity
  8
Abbattitore
100
AcDbLine
 10
10897.5
 20
-1060.0
 30
419.0
 11
10897.5
 21
-1060.0
 31
423.0
  0
LINE
  5
7E
330
1F
100
AcDbEntity
  8
Abbattitore
100
AcDbLine
 10
11171.0
 20
-1060.0
 30
421.0
 11
11171.0
 21
-514.8
 31
421.0
  0
LINE
  5
7F
330
1F
100
AcDbEntity
  8
Abbattitore
100
AcDbLine
 10
11171.0
 20
-787.4
 30
419.0
 11
11171.0
 21
-787.4
 31
423.0
  0
LINE
  5
80
330
1F
100
AcDbEntity
  8
Abbattitore
100
AcDbLine
 10
11171.0
 20
-514.8
 30
421.0
 11
10624.0
 21
-514.8
 31
421.0
  0
LINE
  5
81
330
1F
100
AcDbEntity
  8
Abbattitore
100
AcDbLine
 10
10897.5
 20
-514.8
 30
419.0
 11
10897.5
 21
-514.8
 31
423.0
  0
LINE
  5
82
330
1F
100
AcDbEntity
  8
Abbattitore
100
AcDbLine
 10
10624.0
 20
-514.8
 30
421.0
 11
10624.0
 21
-1060.0
 31
421.0
  0
LINE
  5
83
330
1F
100
AcDbEntity
  8
Abbattitore
100
AcDbLine
 10
10624.0
 20
-787.4000000000001
 30
419.0
 11
10624.0
 21
-787.4000000000001
 31
423.0
  0
LINE
  5
84
330
1F
100
AcDbEntity
  8
Abbattitore
100
AcDbLine
 10
10624.0
 20
-787.4
 30
419.0
 11
11171.0
 21
-787.4
 31
419.0
  0
LINE
  5
85
330
1F
100
AcDbEntity
  8
Abbattitore
100
AcDbLine
 10
10897.5
 20
-1060.0
 30
419.0
 11
10897.5
 21
-514.8
 31
419.0
  0
LINE
  5
86
330
1F
100
AcDbEntity
  8
Abbattitore
100
AcDbLine
 10
10624.0
 20
-787.4
 30
423.0
 11
11171.0
 21
-787.4
 31
423.0
  0
LINE
  5
87
330
1F
100
AcDbEntity
  8
Abbattitore
100
AcDbLine
 10
10897.5
 20
-1060.0
 30
423.0
 11
10897.5
 21
-514.8
 31
423.0
  0
LINE
  5
88
330
1F
100
AcDbEntity
  8
Abbattitore
100
AcDbLine
 10
10618.5
 20
-1060.0
 30
423.0
 11
11176.5
 21
-1060.0
 31
423.0
  0
LINE
  5
89
330
1F
100
AcDbEntity
  8
Abbattitore
100
AcDbLine
 10
11176.5
 20
-1060.0
 30
423.0
 11
11176.5
 21
-1060.0
 31
583.0
  0
LINE
  5
8A
330
1F
100
AcDbEntity
  8
Abbattitore
100
AcDbLine
 10
10618.5
 20
-1060.0
 30
583.0
 11
11176.5
 21
-1060.0
 31
583.0
  0
LINE
  5
8B
330
1F
100
AcDbEntity
  8
Abbattitore
100
AcDbLine
 10
10618.5
 20
-1060.0
 30
423.0
 11
10618.5
 21
-1060.0
 31
583.0
  0
LINE
  5
8C
330
1F
100
AcDbEntity
  8
Abbattitore
100
AcDbLine
 10
11176.5
 20
-1060.0
 30
423.0
 11
11176.5
 21
-510.0
 31
423.0
  0
LINE
  5
8D
330
1F
100
AcDbEntity
  8
Abbattitore
100
AcDbLine
 10
11176.5
 20
-510.0
 30
423.0
 11
11176.5
 21
-510.0
 31
583.0
  0
LINE
  5
8E
330
1F
100
AcDbEntity
  8
Abbattitore
100
AcDbLine
 10
11176.5
 20
-1060.0
 30
583.0
 11
11176.5
 21
-510.0
 31
583.0
  0
LINE
  5
8F
330
1F
100
AcDbEntity
  8
Abbattitore
100
AcDbLine
 10
11176.5
 20
-510.0
 30
423.0
 11
10618.5
 21
-510.0
 31
423.0
  0
LINE
  5
90
330
1F
100
AcDbEntity
  8
Abbattitore
100
AcDbLine
 10
10618.5
 20
-510.0
 30
423.0
 11
10618.5
 21
-510.0
 31
583.0
  0
LINE
  5
91
330
1F
100
AcDbEntity
  8
Abbattitore
100
AcDbLine
 10
11176.5
 20
-510.0
 30
583.0
 11
10618.5
 21
-510.0
 31
583.0
  0
LINE
  5
92
330
1F
100
AcDbEntity
  8
Abbattitore
100
AcDbLine
 10
10618.5
 20
-510.0
 30
423.0
 11
10618.5
 21
-1060.0
 31
423.0
  0
LINE
  5
93
330
1F
100
AcDbEntity
  8
Abbattitore
100
AcDbLine
 10
10618.5
 20
-510.0
 30
583.0
 11
10618.5
 21
-1060.0
 31
583.0
  0
LINE
  5
94
330
1F
100
AcDbEntity
  8
Abbattitore
100
AcDbLine
 10
10618.5
 20
-1060.0
 30
503.0
 11
11176.5
 21
-1060.0
 31
503.0
  0
LINE
  5
95
330
1F
100
AcDbEntity
  8
Abbattitore
100
AcDbLine
 10
10897.5
 20
-1060.0
 30
423.0
 11
10897.5
 21
-1060.0
 31
583.0
  0
LINE
  5
96
330
1F
100
AcDbEntity
  8
Abbattitore
100
AcDbLine
 10
11176.5
 20
-1060.0
 30
503.0
 11
11176.5
 21
-510.0
 31
503.0
  0
LINE
  5
97
330
1F
100
AcDbEntity
  8
Abbattitore
100
AcDbLine
 10
11176.5
 20
-785.0
 30
423.0
 11
11176.5
 21
-785.0
 31
583.0
  0
LINE
  5
98
330
1F
100
AcDbEntity
  8
Abbattitore
100
AcDbLine
 10
11176.5
 20
-510.0
 30
503.0
 11
10618.5
 21
-510.0
 31
503.0
  0
LINE
  5
99
330
1F
100
AcDbEntity
  8
Abbattitore
100
AcDbLine
 10
10897.5
 20
-510.0
 30
423.0
 11
10897.5
 21
-510.0
 31
583.0
  0
LINE
  5
9A
330
1F
100
AcDbEntity
  8
Abbattitore
100
AcDbLine
 10
10618.5
 20
-510.0
 30
503.0
 11
10618.5
 21
-1060.0
 31
503.0
  0
LINE
  5
9B
330
1F
100
AcDbEntity
  8
Abbattitore
100
AcDbLine
 10
10618.5
 20
-785.0000000000001
 30
423.0
 11
10618.5
 21
-785.0000000000001
 31
583.0
  0
LINE
  5
9C
330
1F
100
AcDbEntity
  8
Abbattitore
100
AcDbLine
 10
10618.5
 20
-785.0
 30
423.0
 11
11176.5
 21
-785.0
 31
423.0
  0
LINE
  5
9D
330
1F
100
AcDbEntity
  8
Abbattitore
100
AcDbLine
 10
10897.5
 20
-1060.0
 30
423.0
 11
10897.5
 21
-510.0
 31
423.0
  0
LINE
  5
9E
330
1F
100
AcDbEntity
  8
Abbattitore
100
AcDbLine
 10
10618.5
 20
-785.0
 30
583.0
 11
11176.5
 21
-785.0
 31
583.0
  0
LINE
  5
9F
330
1F
100
AcDbEntity
  8
Abbattitore
100
AcDbLine
 10
10897.5
 20
-1060.0
 30
583.0
 11
10897.5
 21
-510.0
 31
583.0
  0
DIMENSION
  5
A3
330
1F
100
AcDbEntity
  8
Dimensioni
100
AcDbDimension
  2
*D2
 10
0.0
 20
-439.9999999999999
 30
0.0
 11
426.25
 21
291.5
 31
0.0
 70
    32
  1
<>
 71
     5
 42
583.0
 73
     0
 74
     0
 75
     0
210
-1.0
220
0.0
230
0.0
  3
Millimeter Large
100
AcDbAlignedDimension
 13
0.0
 23
-510.0
 33
583.0
 14
0.0
 24
-540.0436999271667
 34
0.0
 50
90.0
100
AcDbRotatedDimension
1001
ACAD
1000
DSTYLE
1002
{
1070
    74
1070
     0
1070
   173
1070
     0
1070
   342
1005
A4
1070
   143
1040
0.0393700787401575
1070
    41
1040
2.0
1070
    79
1070
     1
1070
   141
1040
3.5
1070
   271
1070
     1
1070
    44
1040
1.0
1070
    42
1040
0.5
1070
   147
1040
1.0
1070
    40
1040
5.0
1070
    77
1070
     1
1070
    73
1070
     0
1070
   174
1070
     0
1070
   279
1070
     0
1070
   340
1005
A2
1070
   140
1040
3.5
1070
   284
1070
     1
1070
    78
1070
     1
1002
}
  0
LINE
  5
B6
330
1F
100
AcDbEntity
  8
Rivestimento
100
AcDbLine
 10
10600.5
 20
-1070.0
 30
427.0
 11
10612.5
 21
-1070.0
 31
427.0
  0
LINE
  5
B7
330
1F
100
AcDbEntity
  8
Rivestimento
100
AcDbLine
 10
10612.5
 20
-1070.0
 30
427.0
 11
10612.5
 21
-1070.0
 31
485.0
  0
LINE
  5
B8
330
1F
100
AcDbEntity
  8
Rivestimento
100
AcDbLine
 10
10600.5
 20
-1070.0
 30
485.0
 11
10612.5
 21
-1070.0
 31
485.0
  0
LINE
  5
B9
330
1F
100
AcDbEntity
  8
Rivestimento
100
AcDbLine
 10
10600.5
 20
-1070.0
 30
427.0
 11
10600.5
 21
-1070.0
 31
485.0
  0
LINE
  5
BA
330
1F
100
AcDbEntity
  8
Rivestimento
100
AcDbLine
 10
10612.5
 20
-1070.0
 30
427.0
 11
10612.5
 21
-1066.6
 31
427.0
  0
LINE
  5
BB
330
1F
100
AcDbEntity
  8
Rivestimento
100
AcDbLine
 10
10612.5
 20
-1066.6
 30
427.0
 11
10612.5
 21
-1066.6
 31
485.0
  0
LINE
  5
BC
330
1F
100
AcDbEntity
  8
Rivestimento
100
AcDbLine
 10
10612.5
 20
-1070.0
 30
485.0
 11
10612.5
 21
-1066.6
 31
485.0
  0
LINE
  5
BD
330
1F
100
AcDbEntity
  8
Rivestimento
100
AcDbLine
 10
10612.5
 20
-1066.6
 30
427.0
 11
10600.5
 21
-1066.6
 31
427.0
  0
LINE
  5
BE
330
1F
100
AcDbEntity
  8
Rivestimento
100
AcDbLine
 10
10600.5
 20
-1066.6
 30
427.0
 11
10600.5
 21
-1066.6
 31
485.0
  0
LINE
  5
BF
330
1F
100
AcDbEntity
  8
Rivestimento
100
AcDbLine
 10
10612.5
 20
-1066.6
 30
485.0
 11
10600.5
 21
-1066.6
 31
485.0
  0
LINE
  5
C0
330
1F
100
AcDbEntity
  8
Rivestimento
100
AcDbLine
 10
10600.5
 20
-1066.6
 30
427.0
 11
10600.5
 21
-1070.0
 31
427.0
  0
LINE
  5
C1
330
1F
100
AcDbEntity
  8
Rivestimento
100
AcDbLine
 10
10600.5
 20
-1066.6
 30
485.0
 11
10600.5
 21
-1070.0
 31
485.0
  0
LINE
  5
C2
330
1F
100
AcDbEntity
  8
Rivestimento
100
AcDbLine
 10
10600.5
 20
-1070.0
 30
456.0
 11
10612.5
 21
-1070.0
 31
456.0
  0
LINE
  5
C3
330
1F
100
AcDbEntity
  8
Rivestimento
100
AcDbLine
 10
10606.5
 20
-1070.0
 30
427.0
 11
10606.5
 21
-1070.0
 31
485.0
  0
LINE
  5
C4
330
1F
100
AcDbEntity
  8
Rivestimento
100
AcDbLine
 10
10612.5
 20
-1070.0
 30
456.0
 11
10612.5
 21
-1066.6
 31
456.0
  0
LINE
  5
C5
330
1F
100
AcDbEntity
  8
Rivestimento
100
AcDbLine
 10
10612.5
 20
-1068.3
 30
427.0
 11
10612.5
 21
-1068.3
 31
485.0
  0
LINE
  5
C6
330
1F
100
AcDbEntity
  8
Rivestimento
100
AcDbLine
 10
10612.5
 20
-1066.6
 30
456.0
 11
10600.5
 21
-1066.6
 31
456.0
  0
LINE
  5
C7
330
1F
100
AcDbEntity
  8
Rivestimento
100
AcDbLine
 10
10606.5
 20
-1066.6
 30
427.0
 11
10606.5
 21
-1066.6
 31
485.0
  0
LINE
  5
C8
330
1F
100
AcDbEntity
  8
Rivestimento
100
AcDbLine
 10
10600.5
 20
-1066.6
 30
456.0
 11
10600.5
 21
-1070.0
 31
456.0
  0
LINE
  5
C9
330
1F
100
AcDbEntity
  8
Rivestimento
100
AcDbLine
 10
10600.5
 20
-1068.3
 30
427.0
 11
10600.5
 21
-1068.3
 31
485.0
  0
LINE
  5
CA
330
1F
100
AcDbEntity
  8
Rivestimento
100
AcDbLine
 10
10600.5
 20
-1068.3
 30
427.0
 11
10612.5
 21
-1068.3
 31
427.0
  0
LINE
  5
CB
330
1F
100
AcDbEntity
  8
Rivestimento
100
AcDbLine
 10
10606.5
 20
-1070.0
 30
427.0
 11
10606.5
 21
-1066.6
 31
427.0
  0
LINE
  5
CC
330
1F
100
AcDbEntity
  8
Rivestimento
100
AcDbLine
 10
10600.5
 20
-1068.3
 30
485.0
 11
10612.5
 21
-1068.3
 31
485.0
  0
LINE
  5
CD
330
1F
100
AcDbEntity
  8
Rivestimento
100
AcDbLine
 10
10606.5
 20
-1070.0
 30
485.0
 11
10606.5
 21
-1066.6
 31
485.0
  0
LINE
  5
CE
330
1F
100
AcDbEntity
  8
Rivestimento
100
AcDbLine
 10
11194.5
 20
-1070.0
 30
427.0
 11
11194.5
 21
-1066.6
 31
427.0
  0
LINE
  5
CF
330
1F
100
AcDbEntity
  8
Rivestimento
100
AcDbLine
 10
11194.5
 20
-1066.6
 30
427.0
 11
11194.5
 21
-1066.6
 31
485.0
  0
LINE
  5
D0
330
1F
100
AcDbEntity
  8
Rivestimento
100
AcDbLine
 10
11194.5
 20
-1070.0
 30
485.0
 11
11194.5
 21
-1066.6
 31
485.0
  0
LINE
  5
D1
330
1F
100
AcDbEntity
  8
Rivestimento
100
AcDbLine
 10
11194.5
 20
-1070.0
 30
427.0
 11
11194.5
 21
-1070.0
 31
485.0
  0
LINE
  5
D2
330
1F
100
AcDbEntity
  8
Rivestimento
100
AcDbLine
 10
11194.5
 20
-1066.6
 30
427.0
 11
11182.5
 21
-1066.6
 31
427.0
  0
LINE
  5
D3
330
1F
100
AcDbEntity
  8
Rivestimento
100
AcDbLine
 10
11182.5
 20
-1066.6
 30
427.0
 11
11182.5
 21
-1066.6
 31
485.0
  0
LINE
  5
D4
330
1F
100
AcDbEntity
  8
Rivestimento
100
AcDbLine
 10
11194.5
 20
-1066.6
 30
485.0
 11
11182.5
 21
-1066.6
 31
485.0
  0
LINE
  5
D5
330
1F
100
AcDbEntity
  8
Rivestimento
100
AcDbLine
 10
11182.5
 20
-1066.6
 30
427.0
 11
11182.5
 21
-1070.0
 31
427.0
  0
LINE
  5
D6
330
1F
100
AcDbEntity
  8
Rivestimento
100
AcDbLine
 10
11182.5
 20
-1070.0
 30
427.0
 11
11182.5
 21
-1070.0
 31
485.0
  0
LINE
  5
D7
330
1F
100
AcDbEntity
  8
Rivestimento
100
AcDbLine
 10
11182.5
 20
-1066.6
 30
485.0
 11
11182.5
 21
-1070.0
 31
485.0
  0
LINE
  5
D8
330
1F
100
AcDbEntity
  8
Rivestimento
100
AcDbLine
 10
11182.5
 20
-1070.0
 30
427.0
 11
11194.5
 21
-1070.0
 31
427.0
  0
LINE
  5
D9
330
1F
100
AcDbEntity
  8
Rivestimento
100
AcDbLine
 10
11182.5
 20
-1070.0
 30
485.0
 11
11194.5
 21
-1070.0
 31
485.0
  0
LINE
  5
DA
330
1F
100
AcDbEntity
  8
Rivestimento
100
AcDbLine
 10
11194.5
 20
-1070.0
 30
456.0
 11
11194.5
 21
-1066.6
 31
456.0
  0
LINE
  5
DB
330
1F
100
AcDbEntity
  8
Rivestimento
100
AcDbLine
 10
11194.5
 20
-1068.3
 30
427.0
 11
11194.5
 21
-1068.3
 31
485.0
  0
LINE
  5
DC
330
1F
100
AcDbEntity
  8
Rivestimento
100
AcDbLine
 10
11194.5
 20
-1066.6
 30
456.0
 11
11182.5
 21
-1066.6
 31
456.0
  0
LINE
  5
DD
330
1F
100
AcDbEntity
  8
Rivestimento
100
AcDbLine
 10
11188.5
 20
-1066.6
 30
427.0
 11
11188.5
 21
-1066.6
 31
485.0
  0
LINE
  5
DE
330
1F
100
AcDbEntity
  8
Rivestimento
100
AcDbLine
 10
11182.5
 20
-1066.6
 30
456.0
 11
11182.5
 21
-1070.0
 31
456.0
  0
LINE
  5
DF
330
1F
100
AcDbEntity
  8
Rivestimento
100
AcDbLine
 10
11182.5
 20
-1068.3
 30
427.0
 11
11182.5
 21
-1068.3
 31
485.0
  0
LINE
  5
E0
330
1F
100
AcDbEntity
  8
Rivestimento
100
AcDbLine
 10
11182.5
 20
-1070.0
 30
456.0
 11
11194.5
 21
-1070.0
 31
456.0
  0
LINE
  5
E1
330
1F
100
AcDbEntity
  8
Rivestimento
100
AcDbLine
 10
11188.5
 20
-1070.0
 30
427.0
 11
11188.5
 21
-1070.0
 31
485.0
  0
LINE
  5
E2
330
1F
100
AcDbEntity
  8
Rivestimento
100
AcDbLine
 10
11182.5
 20
-1068.3
 30
427.0
 11
11194.5
 21
-1068.3
 31
427.0
  0
LINE
  5
E3
330
1F
100
AcDbEntity
  8
Rivestimento
100
AcDbLine
 10
11188.5
 20
-1070.0
 30
427.0
 11
11188.5
 21
-1066.6
 31
427.0
  0
LINE
  5
E4
330
1F
100
AcDbEntity
  8
Rivestimento
100
AcDbLine
 10
11182.5
 20
-1068.3
 30
485.0
 11
11194.5
 21
-1068.3
 31
485.0
  0
LINE
  5
E5
330
1F
100
AcDbEntity
  8
Rivestimento
100
AcDbLine
 10
11188.5
 20
-1070.0
 30
485.0
 11
11188.5
 21
-1066.6
 31
485.0
  0
LINE
  5
E6
330
1F
100
AcDbEntity
  8
Abbattitore
100
AcDbLine
 10
10847.5
 20
-1083.4
 30
531.0
 11
10947.5
 21
-1083.4
 31
531.0
  0
LINE
  5
E7
330
1F
100
AcDbEntity
  8
Abbattitore
100
AcDbLine
 10
10947.5
 20
-1083.4
 30
531.0
 11
10947.5
 21
-1083.4
 31
583.0
  0
LINE
  5
E8
330
1F
100
AcDbEntity
  8
Abbattitore
100
AcDbLine
 10
10847.5
 20
-1083.4
 30
583.0
 11
10947.5
 21
-1083.4
 31
583.0
  0
LINE
  5
E9
330
1F
100
AcDbEntity
  8
Abbattitore
100
AcDbLine
 10
10847.5
 20
-1083.4
 30
531.0
 11
10847.5
 21
-1083.4
 31
583.0
  0
LINE
  5
EA
330
1F
100
AcDbEntity
  8
Abbattitore
100
AcDbLine
 10
10947.5
 20
-1083.4
 30
531.0
 11
10947.5
 21
-1080.0
 31
531.0
  0
LINE
  5
EB
330
1F
100
AcDbEntity
  8
Abbattitore
100
AcDbLine
 10
10947.5
 20
-1083.4
 30
583.0
 11
10947.5
 21
-1080.0
 31
583.0
  0
LINE
  5
EC
330
1F
100
AcDbEntity
  8
Abbattitore
100
AcDbLine
 10
10847.5
 20
-1080.0
 30
531.0
 11
10847.5
 21
-1083.4
 31
531.0
  0
LINE
  5
ED
330
1F
100
AcDbEntity
  8
Abbattitore
100
AcDbLine
 10
10847.5
 20
-1080.0
 30
583.0
 11
10847.5
 21
-1083.4
 31
583.0
  0
LINE
  5
EE
330
1F
100
AcDbEntity
  8
Abbattitore
100
AcDbLine
 10
10947.5
 20
-1080.0
 30
531.0
 11
10947.5
 21
-1080.0
 31
583.0
  0
LINE
  5
EF
330
1F
100
AcDbEntity
  8
Abbattitore
100
AcDbLine
 10
10947.5
 20
-1080.0
 30
531.0
 11
10847.5
 21
-1080.0
 31
531.0
  0
LINE
  5
F0
330
1F
100
AcDbEntity
  8
Abbattitore
100
AcDbLine
 10
10847.5
 20
-1080.0
 30
531.0
 11
10847.5
 21
-1080.0
 31
583.0
  0
LINE
  5
F1
330
1F
100
AcDbEntity
  8
Abbattitore
100
AcDbLine
 10
10947.5
 20
-1080.0
 30
583.0
 11
10847.5
 21
-1080.0
 31
583.0
  0
LINE
  5
F2
330
1F
100
AcDbEntity
  8
Abbattitore
100
AcDbLine
 10
10847.5
 20
-1083.4
 30
557.0
 11
10947.5
 21
-1083.4
 31
557.0
  0
LINE
  5
F3
330
1F
100
AcDbEntity
  8
Abbattitore
100
AcDbLine
 10
10897.5
 20
-1083.4
 30
531.0
 11
10897.5
 21
-1083.4
 31
583.0
  0
LINE
  5
F4
330
1F
100
AcDbEntity
  8
Abbattitore
100
AcDbLine
 10
10947.5
 20
-1083.4
 30
557.0
 11
10947.5
 21
-1080.0
 31
557.0
  0
LINE
  5
F5
330
1F
100
AcDbEntity
  8
Abbattitore
100
AcDbLine
 10
10947.5
 20
-1081.7
 30
531.0
 11
10947.5
 21
-1081.7
 31
583.0
  0
LINE
  5
F6
330
1F
100
AcDbEntity
  8
Abbattitore
100
AcDbLine
 10
10847.5
 20
-1080.0
 30
557.0
 11
10847.5
 21
-1083.4
 31
557.0
  0
LINE
  5
F7
330
1F
100
AcDbEntity
  8
Abbattitore
100
AcDbLine
 10
10847.5
 20
-1081.7
 30
531.0
 11
10847.5
 21
-1081.7
 31
583.0
  0
LINE
  5
F8
330
1F
100
AcDbEntity
  8
Abbattitore
100
AcDbLine
 10
10847.5
 20
-1081.7
 30
531.0
 11
10947.5
 21
-1081.7
 31
531.0
  0
LINE
  5
F9
330
1F
100
AcDbEntity
  8
Abbattitore
100
AcDbLine
 10
10897.5
 20
-1083.4
 30
531.0
 11
10897.5
 21
-1080.0
 31
531.0
  0
LINE
  5
FA
330
1F
100
AcDbEntity
  8
Abbattitore
100
AcDbLine
 10
10847.5
 20
-1081.7
 30
583.0
 11
10947.5
 21
-1081.7
 31
583.0
  0
LINE
  5
FB
330
1F
100
AcDbEntity
  8
Abbattitore
100
AcDbLine
 10
10897.5
 20
-1083.4
 30
583.0
 11
10897.5
 21
-1080.0
 31
583.0
  0
LINE
  5
FC
330
1F
100
AcDbEntity
  8
Abbattitore
100
AcDbLine
 10
10847.5
 20
-1080.0
 30
553.75
 11
10947.5
 21
-1080.0
 31
553.75
  0
LINE
  5
FD
330
1F
100
AcDbEntity
  8
Rivestimento
100
AcDbLine
 10
11180.97643097643
 20
-1070.0
 30
427.0
 11
11180.97643097643
 21
-1066.6
 31
427.0
  0
LINE
  5
FE
330
1F
100
AcDbEntity
  8
Rivestimento
100
AcDbLine
 10
11180.97643097643
 20
-1066.6
 30
427.0
 11
11180.97643097643
 21
-1066.6
 31
485.0
  0
LINE
  5
FF
330
1F
100
AcDbEntity
  8
Rivestimento
100
AcDbLine
 10
11180.97643097643
 20
-1070.0
 30
485.0
 11
11180.97643097643
 21
-1066.6
 31
485.0
  0
LINE
  5
100
330
1F
100
AcDbEntity
  8
Rivestimento
100
AcDbLine
 10
11180.97643097643
 20
-1070.0
 30
427.0
 11
11180.97643097643
 21
-1070.0
 31
485.0
  0
LINE
  5
101
330
1F
100
AcDbEntity
  8
Rivestimento
100
AcDbLine
 10
11180.97643097643
 20
-1066.6
 30
427.0
 11
10614.02356902357
 21
-1066.6
 31
427.0
  0
LINE
  5
102
330
1F
100
AcDbEntity
  8
Rivestimento
100
AcDbLine
 10
10614.02356902357
 20
-1066.6
 30
427.0
 11
10614.02356902357
 21
-1066.6
 31
485.0
  0
LINE
  5
103
330
1F
100
AcDbEntity
  8
Rivestimento
100
AcDbLine
 10
11180.97643097643
 20
-1066.6
 30
485.0
 11
10614.02356902357
 21
-1066.6
 31
485.0
  0
LINE
  5
104
330
1F
100
AcDbEntity
  8
Rivestimento
100
AcDbLine
 10
10614.02356902357
 20
-1066.6
 30
427.0
 11
10614.02356902357
 21
-1070.0
 31
427.0
  0
LINE
  5
105
330
1F
100
AcDbEntity
  8
Rivestimento
100
AcDbLine
 10
10614.02356902357
 20
-1070.0
 30
427.0
 11
10614.02356902357
 21
-1070.0
 31
485.0
  0
LINE
  5
106
330
1F
100
AcDbEntity
  8
Rivestimento
100
AcDbLine
 10
10614.02356902357
 20
-1066.6
 30
485.0
 11
10614.02356902357
 21
-1070.0
 31
485.0
  0
LINE
  5
107
330
1F
100
AcDbEntity
  8
Rivestimento
100
AcDbLine
 10
10614.02356902357
 20
-1070.0
 30
427.0
 11
11180.97643097643
 21
-1070.0
 31
427.0
  0
LINE
  5
108
330
1F
100
AcDbEntity
  8
Rivestimento
100
AcDbLine
 10
10614.02356902357
 20
-1070.0
 30
485.0
 11
11180.97643097643
 21
-1070.0
 31
485.0
  0
LINE
  5
109
330
1F
100
AcDbEntity
  8
Rivestimento
100
AcDbLine
 10
11180.97643097643
 20
-1070.0
 30
456.0
 11
11180.97643097643
 21
-1066.6
 31
456.0
  0
LINE
  5
10A
330
1F
100
AcDbEntity
  8
Rivestimento
100
AcDbLine
 10
11180.97643097643
 20
-1068.3
 30
427.0
 11
11180.97643097643
 21
-1068.3
 31
485.0
  0
LINE
  5
10B
330
1F
100
AcDbEntity
  8
Rivestimento
100
AcDbLine
 10
11180.97643097643
 20
-1066.6
 30
456.0
 11
10614.02356902357
 21
-1066.6
 31
456.0
  0
LINE
  5
10C
330
1F
100
AcDbEntity
  8
Rivestimento
100
AcDbLine
 10
10897.5
 20
-1066.6
 30
427.0
 11
10897.5
 21
-1066.6
 31
485.0
  0
LINE
  5
10D
330
1F
100
AcDbEntity
  8
Rivestimento
100
AcDbLine
 10
10614.02356902357
 20
-1066.6
 30
456.0
 11
10614.02356902357
 21
-1070.0
 31
456.0
  0
LINE
  5
10E
330
1F
100
AcDbEntity
  8
Rivestimento
100
AcDbLine
 10
10614.02356902357
 20
-1068.3
 30
427.0
 11
10614.02356902357
 21
-1068.3
 31
485.0
  0
LINE
  5
10F
330
1F
100
AcDbEntity
  8
Rivestimento
100
AcDbLine
 10
10614.02356902357
 20
-1070.0
 30
456.0
 11
11180.97643097643
 21
-1070.0
 31
456.0
  0
LINE
  5
110
330
1F
100
AcDbEntity
  8
Rivestimento
100
AcDbLine
 10
10897.5
 20
-1070.0
 30
427.0
 11
10897.5
 21
-1070.0
 31
485.0
  0
LINE
  5
111
330
1F
100
AcDbEntity
  8
Rivestimento
100
AcDbLine
 10
10614.02356902357
 20
-1068.3
 30
427.0
 11
11180.97643097643
 21
-1068.3
 31
427.0
  0
LINE
  5
112
330
1F
100
AcDbEntity
  8
Rivestimento
100
AcDbLine
 10
10897.5
 20
-1070.0
 30
427.0
 11
10897.5
 21
-1066.6
 31
427.0
  0
LINE
  5
113
330
1F
100
AcDbEntity
  8
Rivestimento
100
AcDbLine
 10
10614.02356902357
 20
-1068.3
 30
485.0
 11
11180.97643097643
 21
-1068.3
 31
485.0
  0
LINE
  5
114
330
1F
100
AcDbEntity
  8
Rivestimento
100
AcDbLine
 10
10897.5
 20
-1070.0
 30
485.0
 11
10897.5
 21
-1066.6
 31
485.0
  0
LINE
  5
115
330
1F
100
AcDbEntity
  8
Rivestimento
100
AcDbLine
 10
10600.0
 20
-1083.4
 30
487.0
 11
11195.0
 21
-1083.4
 31
487.0
  0
LINE
  5
116
330
1F
100
AcDbEntity
  8
Rivestimento
100
AcDbLine
 10
11195.0
 20
-1083.4
 30
487.0
 11
11195.0
 21
-1083.4
 31
515.0
  0
LINE
  5
117
330
1F
100
AcDbEntity
  8
Rivestimento
100
AcDbLine
 10
10600.0
 20
-1083.4
 30
515.0
 11
11195.0
 21
-1083.4
 31
515.0
  0
LINE
  5
118
330
1F
100
AcDbEntity
  8
Rivestimento
100
AcDbLine
 10
10600.0
 20
-1083.4
 30
487.0
 11
10600.0
 21
-1083.4
 31
515.0
  0
LINE
  5
119
330
1F
100
AcDbEntity
  8
Rivestimento
100
AcDbLine
 10
11195.0
 20
-1083.4
 30
487.0
 11
11195.0
 21
-1080.0
 31
487.0
  0
LINE
  5
11A
330
1F
100
AcDbEntity
  8
Rivestimento
100
AcDbLine
 10
11195.0
 20
-1080.0
 30
487.0
 11
11195.0
 21
-1080.0
 31
515.0
  0
LINE
  5
11B
330
1F
100
AcDbEntity
  8
Rivestimento
100
AcDbLine
 10
11195.0
 20
-1083.4
 30
515.0
 11
11195.0
 21
-1080.0
 31
515.0
  0
LINE
  5
11C
330
1F
100
AcDbEntity
  8
Rivestimento
100
AcDbLine
 10
11195.0
 20
-1080.0
 30
487.0
 11
10600.0
 21
-1080.0
 31
487.0
  0
LINE
  5
11D
330
1F
100
AcDbEntity
  8
Rivestimento
100
AcDbLine
 10
10600.0
 20
-1080.0
 30
487.0
 11
10600.0
 21
-1080.0
 31
515.0
  0
LINE
  5
11E
330
1F
100
AcDbEntity
  8
Rivestimento
100
AcDbLine
 10
11195.0
 20
-1080.0
 30
515.0
 11
10600.0
 21
-1080.0
 31
515.0
  0
LINE
  5
11F
330
1F
100
AcDbEntity
  8
Rivestimento
100
AcDbLine
 10
10600.0
 20
-1080.0
 30
487.0
 11
10600.0
 21
-1083.4
 31
487.0
  0
LINE
  5
120
330
1F
100
AcDbEntity
  8
Rivestimento
100
AcDbLine
 10
10600.0
 20
-1080.0
 30
515.0
 11
10600.0
 21
-1083.4
 31
515.0
  0
LINE
  5
121
330
1F
100
AcDbEntity
  8
Rivestimento
100
AcDbLine
 10
10600.0
 20
-1083.4
 30
501.0
 11
11195.0
 21
-1083.4
 31
501.0
  0
LINE
  5
122
330
1F
100
AcDbEntity
  8
Rivestimento
100
AcDbLine
 10
10897.5
 20
-1083.4
 30
487.0
 11
10897.5
 21
-1083.4
 31
515.0
  0
LINE
  5
123
330
1F
100
AcDbEntity
  8
Rivestimento
100
AcDbLine
 10
11195.0
 20
-1083.4
 30
501.0
 11
11195.0
 21
-1080.0
 31
501.0
  0
LINE
  5
124
330
1F
100
AcDbEntity
  8
Rivestimento
100
AcDbLine
 10
11195.0
 20
-1081.7
 30
487.0
 11
11195.0
 21
-1081.7
 31
515.0
  0
LINE
  5
125
330
1F
100
AcDbEntity
  8
Rivestimento
100
AcDbLine
 10
11195.0
 20
-1080.0
 30
501.0
 11
10600.0
 21
-1080.0
 31
501.0
  0
LINE
  5
126
330
1F
100
AcDbEntity
  8
Rivestimento
100
AcDbLine
 10
10897.5
 20
-1080.0
 30
487.0
 11
10897.5
 21
-1080.0
 31
515.0
  0
LINE
  5
127
330
1F
100
AcDbEntity
  8
Rivestimento
100
AcDbLine
 10
10600.0
 20
-1080.0
 30
501.0
 11
10600.0
 21
-1083.4
 31
501.0
  0
LINE
  5
128
330
1F
100
AcDbEntity
  8
Rivestimento
100
AcDbLine
 10
10600.0
 20
-1081.7
 30
487.0
 11
10600.0
 21
-1081.7
 31
515.0
  0
LINE
  5
129
330
1F
100
AcDbEntity
  8
Rivestimento
100
AcDbLine
 10
10600.0
 20
-1081.7
 30
487.0
 11
11195.0
 21
-1081.7
 31
487.0
  0
LINE
  5
12A
330
1F
100
AcDbEntity
  8
Rivestimento
100
AcDbLine
 10
10897.5
 20
-1083.4
 30
487.0
 11
10897.5
 21
-1080.0
 31
487.0
  0
LINE
  5
12B
330
1F
100
AcDbEntity
  8
Rivestimento
100
AcDbLine
 10
10600.0
 20
-1081.7
 30
515.0
 11
11195.0
 21
-1081.7
 31
515.0
  0
LINE
  5
12C
330
1F
100
AcDbEntity
  8
Rivestimento
100
AcDbLine
 10
10897.5
 20
-1083.4
 30
515.0
 11
10897.5
 21
-1080.0
 31
515.0
  0
LINE
  5
12E
330
1F
100
AcDbEntity
  8
Frontalino
100
AcDbLine
 10
10600.0
 20
-1070.0
 30
487.0
 11
11195.0
 21
-1070.0
 31
487.0
  0
LINE
  5
12F
330
1F
100
AcDbEntity
  8
Frontalino
100
AcDbLine
 10
11195.0
 20
-1070.0
 30
487.0
 11
11195.0
 21
-1070.0
 31
597.0
  0
LINE
  5
130
330
1F
100
AcDbEntity
  8
Frontalino
100
AcDbLine
 10
10600.0
 20
-1070.0
 30
597.0
 11
11195.0
 21
-1070.0
 31
597.0
  0
LINE
  5
131
330
1F
100
AcDbEntity
  8
Frontalino
100
AcDbLine
 10
10600.0
 20
-1070.0
 30
487.0
 11
10600.0
 21
-1070.0
 31
597.0
  0
LINE
  5
132
330
1F
100
AcDbEntity
  8
Frontalino
100
AcDbLine
 10
11195.0
 20
-1070.0
 30
487.0
 11
11195.0
 21
-1066.6
 31
487.0
  0
LINE
  5
133
330
1F
100
AcDbEntity
  8
Frontalino
100
AcDbLine
 10
11195.0
 20
-1066.6
 30
487.0
 11
11195.0
 21
-1066.6
 31
597.0
  0
LINE
  5
134
330
1F
100
AcDbEntity
  8
Frontalino
100
AcDbLine
 10
11195.0
 20
-1070.0
 30
597.0
 11
11195.0
 21
-1066.6
 31
597.0
  0
LINE
  5
135
330
1F
100
AcDbEntity
  8
Frontalino
100
AcDbLine
 10
11195.0
 20
-1066.6
 30
487.0
 11
10600.0
 21
-1066.6
 31
487.0
  0
LINE
  5
136
330
1F
100
AcDbEntity
  8
Frontalino
100
AcDbLine
 10
10600.0
 20
-1066.6
 30
487.0
 11
10600.0
 21
-1066.6
 31
597.0
  0
LINE
  5
137
330
1F
100
AcDbEntity
  8
Frontalino
100
AcDbLine
 10
11195.0
 20
-1066.6
 30
597.0
 11
10600.0
 21
-1066.6
 31
597.0
  0
LINE
  5
138
330
1F
100
AcDbEntity
  8
Frontalino
100
AcDbLine
 10
10600.0
 20
-1066.6
 30
487.0
 11
10600.0
 21
-1070.0
 31
487.0
  0
LINE
  5
139
330
1F
100
AcDbEntity
  8
Frontalino
100
AcDbLine
 10
10600.0
 20
-1066.6
 30
597.0
 11
10600.0
 21
-1070.0
 31
597.0
  0
LINE
  5
13A
330
1F
100
AcDbEntity
  8
Frontalino
100
AcDbLine
 10
10600.0
 20
-1070.0
 30
542.0
 11
11195.0
 21
-1070.0
 31
542.0
  0
LINE
  5
13B
330
1F
100
AcDbEntity
  8
Frontalino
100
AcDbLine
 10
10897.5
 20
-1070.0
 30
487.0
 11
10897.5
 21
-1070.0
 31
597.0
  0
LINE
  5
13C
330
1F
100
AcDbEntity
  8
Frontalino
100
AcDbLine
 10
11195.0
 20
-1070.0
 30
542.0
 11
11195.0
 21
-1066.6
 31
542.0
  0
LINE
  5
13D
330
1F
100
AcDbEntity
  8
Frontalino
100
AcDbLine
 10
11195.0
 20
-1068.3
 30
487.0
 11
11195.0
 21
-1068.3
 31
597.0
  0
LINE
  5
13E
330
1F
100
AcDbEntity
  8
Frontalino
100
AcDbLine
 10
11195.0
 20
-1066.6
 30
542.0
 11
10600.0
 21
-1066.6
 31
542.0
  0
LINE
  5
13F
330
1F
100
AcDbEntity
  8
Frontalino
100
AcDbLine
 10
10897.5
 20
-1066.6
 30
487.0
 11
10897.5
 21
-1066.6
 31
597.0
  0
LINE
  5
140
330
1F
100
AcDbEntity
  8
Frontalino
100
AcDbLine
 10
10600.0
 20
-1066.6
 30
542.0
 11
10600.0
 21
-1070.0
 31
542.0
  0
LINE
  5
141
330
1F
100
AcDbEntity
  8
Frontalino
100
AcDbLine
 10
10600.0
 20
-1068.3
 30
487.0
 11
10600.0
 21
-1068.3
 31
597.0
  0
LINE
  5
142
330
1F
100
AcDbEntity
  8
Frontalino
100
AcDbLine
 10
10600.0
 20
-1068.3
 30
487.0
 11
11195.0
 21
-1068.3
 31
487.0
  0
LINE
  5
143
330
1F
100
AcDbEntity
  8
Frontalino
100
AcDbLine
 10
10897.5
 20
-1070.0
 30
487.0
 11
10897.5
 21
-1066.6
 31
487.0
  0
LINE
  5
144
330
1F
100
AcDbEntity
  8
Frontalino
100
AcDbLine
 10
10600.0
 20
-1068.3
 30
597.0
 11
11195.0
 21
-1068.3
 31
597.0
  0
LINE
  5
145
330
1F
100
AcDbEntity
  8
Frontalino
100
AcDbLine
 10
10897.5
 20
-1070.0
 30
597.0
 11
10897.5
 21
-1066.6
 31
597.0
  0
LINE
  5
146
330
1F
100
AcDbEntity
  8
Frontalino
100
AcDbLine
 10
10600.0
 20
-1080.0
 30
487.0
 11
11195.0
 21
-1080.0
 31
487.0
  0
LINE
  5
147
330
1F
100
AcDbEntity
  8
Frontalino
100
AcDbLine
 10
11195.0
 20
-1080.0
 30
487.0
 11
11195.0
 21
-1080.0
 31
597.0
  0
LINE
  5
148
330
1F
100
AcDbEntity
  8
Frontalino
100
AcDbLine
 10
10600.0
 20
-1080.0
 30
597.0
 11
11195.0
 21
-1080.0
 31
597.0
  0
LINE
  5
149
330
1F
100
AcDbEntity
  8
Frontalino
100
AcDbLine
 10
10600.0
 20
-1080.0
 30
487.0
 11
10600.0
 21
-1080.0
 31
597.0
  0
LINE
  5
14A
330
1F
100
AcDbEntity
  8
Frontalino
100
AcDbLine
 10
11195.0
 20
-1080.0
 30
487.0
 11
11195.0
 21
-1070.0
 31
487.0
  0
LINE
  5
14B
330
1F
100
AcDbEntity
  8
Frontalino
100
AcDbLine
 10
11195.0
 20
-1070.0
 30
487.0
 11
11195.0
 21
-1070.0
 31
597.0
  0
LINE
  5
14C
330
1F
100
AcDbEntity
  8
Frontalino
100
AcDbLine
 10
11195.0
 20
-1080.0
 30
597.0
 11
11195.0
 21
-1070.0
 31
597.0
  0
LINE
  5
14D
330
1F
100
AcDbEntity
  8
Frontalino
100
AcDbLine
 10
11195.0
 20
-1070.0
 30
487.0
 11
10600.0
 21
-1070.0
 31
487.0
  0
LINE
  5
14E
330
1F
100
AcDbEntity
  8
Frontalino
100
AcDbLine
 10
10600.0
 20
-1070.0
 30
487.0
 11
10600.0
 21
-1070.0
 31
597.0
  0
LINE
  5
14F
330
1F
100
AcDbEntity
  8
Frontalino
100
AcDbLine
 10
11195.0
 20
-1070.0
 30
597.0
 11
10600.0
 21
-1070.0
 31
597.0
  0
LINE
  5
150
330
1F
100
AcDbEntity
  8
Frontalino
100
AcDbLine
 10
10600.0
 20
-1070.0
 30
487.0
 11
10600.0
 21
-1080.0
 31
487.0
  0
LINE
  5
151
330
1F
100
AcDbEntity
  8
Frontalino
100
AcDbLine
 10
10600.0
 20
-1070.0
 30
597.0
 11
10600.0
 21
-1080.0
 31
597.0
  0
LINE
  5
152
330
1F
100
AcDbEntity
  8
Frontalino
100
AcDbLine
 10
10600.0
 20
-1080.0
 30
542.0
 11
11195.0
 21
-1080.0
 31
542.0
  0
LINE
  5
153
330
1F
100
AcDbEntity
  8
Frontalino
100
AcDbLine
 10
10897.5
 20
-1080.0
 30
487.0
 11
10897.5
 21
-1080.0
 31
597.0
  0
LINE
  5
154
330
1F
100
AcDbEntity
  8
Frontalino
100
AcDbLine
 10
11195.0
 20
-1080.0
 30
542.0
 11
11195.0
 21
-1070.0
 31
542.0
  0
LINE
  5
155
330
1F
100
AcDbEntity
  8
Frontalino
100
AcDbLine
 10
11195.0
 20
-1075.0
 30
487.0
 11
11195.0
 21
-1075.0
 31
597.0
  0
LINE
  5
156
330
1F
100
AcDbEntity
  8
Frontalino
100
AcDbLine
 10
11195.0
 20
-1070.0
 30
542.0
 11
10600.0
 21
-1070.0
 31
542.0
  0
LINE
  5
157
330
1F
100
AcDbEntity
  8
Frontalino
100
AcDbLine
 10
10897.5
 20
-1070.0
 30
487.0
 11
10897.5
 21
-1070.0
 31
597.0
  0
LINE
  5
158
330
1F
100
AcDbEntity
  8
Frontalino
100
AcDbLine
 10
10600.0
 20
-1070.0
 30
542.0
 11
10600.0
 21
-1080.0
 31
542.0
  0
LINE
  5
159
330
1F
100
AcDbEntity
  8
Frontalino
100
AcDbLine
 10
10600.0
 20
-1075.0
 30
487.0
 11
10600.0
 21
-1075.0
 31
597.0
  0
LINE
  5
15A
330
1F
100
AcDbEntity
  8
Frontalino
100
AcDbLine
 10
10600.0
 20
-1075.0
 30
487.0
 11
11195.0
 21
-1075.0
 31
487.0
  0
LINE
  5
15B
330
1F
100
AcDbEntity
  8
Frontalino
100
AcDbLine
 10
10897.5
 20
-1080.0
 30
487.0
 11
10897.5
 21
-1070.0
 31
487.0
  0
LINE
  5
15C
330
1F
100
AcDbEntity
  8
Frontalino
100
AcDbLine
 10
10600.0
 20
-1075.0
 30
597.0
 11
11195.0
 21
-1075.0
 31
597.0
  0
LINE
  5
15D
330
1F
100
AcDbEntity
  8
Frontalino
100
AcDbLine
 10
10897.5
 20
-1080.0
 30
597.0
 11
10897.5
 21
-1070.0
 31
597.0
  0
LINE
  5
15E
330
1F
100
AcDbEntity
  8
Rivestimento
100
AcDbLine
 10
10600.0
 20
-1083.4
 30
517.0
 11
11195.0
 21
-1083.4
 31
517.0
  0
LINE
  5
15F
330
1F
100
AcDbEntity
  8
Rivestimento
100
AcDbLine
 10
11195.0
 20
-1083.4
 30
517.0
 11
11195.0
 21
-1083.4
 31
597.0
  0
LINE
  5
160
330
1F
100
AcDbEntity
  8
Rivestimento
100
AcDbLine
 10
10600.0
 20
-1083.4
 30
597.0
 11
11195.0
 21
-1083.4
 31
597.0
  0
LINE
  5
161
330
1F
100
AcDbEntity
  8
Rivestimento
100
AcDbLine
 10
10600.0
 20
-1083.4
 30
517.0
 11
10600.0
 21
-1083.4
 31
597.0
  0
LINE
  5
162
330
1F
100
AcDbEntity
  8
Rivestimento
100
AcDbLine
 10
11195.0
 20
-1083.4
 30
517.0
 11
11195.0
 21
-1080.0
 31
517.0
  0
LINE
  5
163
330
1F
100
AcDbEntity
  8
Rivestimento
100
AcDbLine
 10
11195.0
 20
-1080.0
 30
517.0
 11
11195.0
 21
-1080.0
 31
597.0
  0
LINE
  5
164
330
1F
100
AcDbEntity
  8
Rivestimento
100
AcDbLine
 10
11195.0
 20
-1083.4
 30
597.0
 11
11195.0
 21
-1080.0
 31
597.0
  0
LINE
  5
165
330
1F
100
AcDbEntity
  8
Rivestimento
100
AcDbLine
 10
11195.0
 20
-1080.0
 30
517.0
 11
10600.0
 21
-1080.0
 31
517.0
  0
LINE
  5
166
330
1F
100
AcDbEntity
  8
Rivestimento
100
AcDbLine
 10
10600.0
 20
-1080.0
 30
517.0
 11
10600.0
 21
-1080.0
 31
597.0
  0
LINE
  5
167
330
1F
100
AcDbEntity
  8
Rivestimento
100
AcDbLine
 10
11195.0
 20
-1080.0
 30
597.0
 11
10600.0
 21
-1080.0
 31
597.0
  0
LINE
  5
168
330
1F
100
AcDbEntity
  8
Rivestimento
100
AcDbLine
 10
10600.0
 20
-1080.0
 30
517.0
 11
10600.0
 21
-1083.4
 31
517.0
  0
LINE
  5
169
330
1F
100
AcDbEntity
  8
Rivestimento
100
AcDbLine
 10
10600.0
 20
-1080.0
 30
597.0
 11
10600.0
 21
-1083.4
 31
597.0
  0
LINE
  5
16A
330
1F
100
AcDbEntity
  8
Rivestimento
100
AcDbLine
 10
10844.91161616162
 20
-1080.0
 30
529.0
 11
10844.91161616162
 21
-1083.4
 31
529.0
  0
LINE
  5
16B
330
1F
100
AcDbEntity
  8
Rivestimento
100
AcDbLine
 10
10844.91161616162
 20
-1080.0
 30
585.0
 11
10844.91161616162
 21
-1083.4
 31
585.0
  0
LINE
  5
16C
330
1F
100
AcDbEntity
  8
Rivestimento
100
AcDbLine
 10
10950.08838383838
 20
-1083.4
 30
585.0
 11
10950.08838383839
 21
-1083.4
 31
529.0
  0
LINE
  5
16D
330
1F
100
AcDbEntity
  8
Rivestimento
100
AcDbLine
 10
10844.91161616162
 20
-1083.4
 30
529.0
 11
10844.91161616162
 21
-1083.4
 31
585.0
  0
LINE
  5
16E
330
1F
100
AcDbEntity
  8
Rivestimento
100
AcDbLine
 10
10844.91161616162
 20
-1083.4
 30
529.0
 11
10950.08838383839
 21
-1083.4
 31
529.0
  0
LINE
  5
16F
330
1F
100
AcDbEntity
  8
Rivestimento
100
AcDbLine
 10
10844.91161616162
 20
-1083.4
 30
585.0
 11
10950.08838383838
 21
-1083.4
 31
585.0
  0
LINE
  5
170
330
1F
100
AcDbEntity
  8
Rivestimento
100
AcDbLine
 10
10950.08838383839
 20
-1080.0
 30
529.0
 11
10950.08838383839
 21
-1080.0
 31
585.0
  0
LINE
  5
171
330
1F
100
AcDbEntity
  8
Rivestimento
100
AcDbLine
 10
10950.08838383839
 20
-1080.0
 30
529.0
 11
10844.91161616162
 21
-1080.0
 31
529.0
  0
LINE
  5
172
330
1F
100
AcDbEntity
  8
Rivestimento
100
AcDbLine
 10
10844.91161616162
 20
-1080.0
 30
529.0
 11
10844.91161616162
 21
-1080.0
 31
585.0
  0
LINE
  5
173
330
1F
100
AcDbEntity
  8
Rivestimento
100
AcDbLine
 10
10950.08838383839
 20
-1080.0
 30
585.0
 11
10844.91161616162
 21
-1080.0
 31
585.0
  0
LINE
  5
174
330
1F
100
AcDbEntity
  8
Rivestimento
100
AcDbLine
 10
10950.08838383839
 20
-1083.4
 30
529.0
 11
10950.08838383839
 21
-1080.0
 31
529.0
  0
LINE
  5
175
330
1F
100
AcDbEntity
  8
Rivestimento
100
AcDbLine
 10
10950.08838383838
 20
-1083.4
 30
585.0
 11
10950.08838383839
 21
-1080.0
 31
585.0
  0
LINE
  5
176
330
1F
100
AcDbEntity
  8
Rivestimento
100
AcDbLine
 10
10600.0
 20
-1083.4
 30
557.0
 11
10844.91161616161
 21
-1083.4
 31
557.0
  0
LINE
  5
177
330
1F
100
AcDbEntity
  8
Rivestimento
100
AcDbLine
 10
10950.08838383838
 20
-1083.4
 30
557.0
 11
11195.0
 21
-1083.4
 31
557.0
  0
LINE
  5
178
330
1F
100
AcDbEntity
  8
Rivestimento
100
AcDbLine
 10
10897.5
 20
-1083.4
 30
517.0
 11
10897.5
 21
-1083.4
 31
529.0
  0
LINE
  5
179
330
1F
100
AcDbEntity
  8
Rivestimento
100
AcDbLine
 10
10897.5
 20
-1083.4
 30
585.0
 11
10897.5
 21
-1083.4
 31
597.0
  0
LINE
  5
17A
330
1F
100
AcDbEntity
  8
Rivestimento
100
AcDbLine
 10
11195.0
 20
-1083.4
 30
557.0
 11
11195.0
 21
-1080.0
 31
557.0
  0
LINE
  5
17B
330
1F
100
AcDbEntity
  8
Rivestimento
100
AcDbLine
 10
11195.0
 20
-1081.7
 30
517.0
 11
11195.0
 21
-1081.7
 31
597.0
  0
LINE
  5
17C
330
1F
100
AcDbEntity
  8
Rivestimento
100
AcDbLine
 10
11195.0
 20
-1080.0
 30
557.0
 11
10950.08838383839
 21
-1080.0
 31
557.0
  0
LINE
  5
17D
330
1F
100
AcDbEntity
  8
Rivestimento
100
AcDbLine
 10
10844.91161616162
 20
-1080.0
 30
557.0
 11
10600.0
 21
-1080.0
 31
557.0
  0
LINE
  5
17E
330
1F
100
AcDbEntity
  8
Rivestimento
100
AcDbLine
 10
10897.5
 20
-1080.0
 30
517.0
 11
10897.5
 21
-1080.0
 31
529.0
  0
LINE
  5
17F
330
1F
100
AcDbEntity
  8
Rivestimento
100
AcDbLine
 10
10897.5
 20
-1080.0
 30
585.0
 11
10897.5
 21
-1080.0
 31
597.0
  0
LINE
  5
180
330
1F
100
AcDbEntity
  8
Rivestimento
100
AcDbLine
 10
10600.0
 20
-1080.0
 30
557.0
 11
10600.0
 21
-1083.4
 31
557.0
  0
LINE
  5
181
330
1F
100
AcDbEntity
  8
Rivestimento
100
AcDbLine
 10
10600.0
 20
-1081.7
 30
517.0
 11
10600.0
 21
-1081.7
 31
597.0
  0
LINE
  5
182
330
1F
100
AcDbEntity
  8
Rivestimento
100
AcDbLine
 10
10600.0
 20
-1081.7
 30
517.0
 11
11195.0
 21
-1081.7
 31
517.0
  0
LINE
  5
183
330
1F
100
AcDbEntity
  8
Rivestimento
100
AcDbLine
 10
10897.5
 20
-1083.4
 30
517.0
 11
10897.5
 21
-1080.0
 31
517.0
  0
LINE
  5
184
330
1F
100
AcDbEntity
  8
Rivestimento
100
AcDbLine
 10
10600.0
 20
-1081.7
 30
597.0
 11
11195.0
 21
-1081.7
 31
597.0
  0
LINE
  5
185
330
1F
100
AcDbEntity
  8
Rivestimento
100
AcDbLine
 10
10897.5
 20
-1083.4
 30
597.0
 11
10897.5
 21
-1080.0
 31
597.0
  0
LINE
  5
186
330
1F
100
AcDbEntity
  8
Rivestimento
100
AcDbLine
 10
10950.08838383839
 20
-1083.4
 30
557.0
 11
10950.08838383839
 21
-1080.0
 31
557.0
  0
LINE
  5
187
330
1F
100
AcDbEntity
  8
Rivestimento
100
AcDbLine
 10
10950.08838383839
 20
-1082.85
 30
529.0
 11
10950.08838383839
 21
-1082.85
 31
585.0
  0
LINE
  5
188
330
1F
100
AcDbEntity
  8
Rivestimento
100
AcDbLine
 10
10844.91161616162
 20
-1080.0
 30
557.0
 11
10844.91161616162
 21
-1083.4
 31
557.0
  0
LINE
  5
189
330
1F
100
AcDbEntity
  8
Rivestimento
100
AcDbLine
 10
10844.91161616162
 20
-1082.85
 30
529.0
 11
10844.91161616162
 21
-1082.85
 31
585.0
  0
LINE
  5
18A
330
1F
100
AcDbEntity
  8
Rivestimento
100
AcDbLine
 10
10844.91161616162
 20
-1082.85
 30
529.0
 11
10950.08838383839
 21
-1082.85
 31
529.0
  0
LINE
  5
18B
330
1F
100
AcDbEntity
  8
Rivestimento
100
AcDbLine
 10
10897.5
 20
-1083.4
 30
529.0
 11
10897.5
 21
-1080.0
 31
529.0
  0
LINE
  5
18C
330
1F
100
AcDbEntity
  8
Rivestimento
100
AcDbLine
 10
10844.91161616162
 20
-1082.85
 30
585.0
 11
10950.08838383839
 21
-1082.85
 31
585.0
  0
LINE
  5
18D
330
1F
100
AcDbEntity
  8
Rivestimento
100
AcDbLine
 10
10897.5
 20
-1083.4
 30
585.0
 11
10897.5
 21
-1080.0
 31
585.0
  0
LINE
  5
18E
330
1F
100
AcDbEntity
  8
Abbattitore
100
AcDbLine
 10
10618.5
 20
-509.9999999999999
 30
284.5000000000001
 11
10618.5
 21
-509.9999999999999
 31
419.0
  0
LINE
  5
18F
330
1F
100
AcDbEntity
  8
Abbattitore
100
AcDbLine
 10
10618.5
 20
-509.9999999999999
 30
419.0
 11
11176.5
 21
-509.9999999999999
 31
419.0
  0
LINE
  5
190
330
1F
100
AcDbEntity
  8
Abbattitore
100
AcDbLine
 10
11176.5
 20
-509.9999999999999
 30
284.5000000000001
 11
11176.5
 21
-509.9999999999999
 31
419.0
  0
LINE
  5
191
330
1F
100
AcDbEntity
  8
Abbattitore
100
AcDbLine
 10
10618.5
 20
-509.9999999999999
 30
284.5000000000001
 11
11176.5
 21
-509.9999999999999
 31
284.5000000000001
  0
LINE
  5
192
330
1F
100
AcDbEntity
  8
Abbattitore
100
AcDbLine
 10
10618.5
 20
-509.9999999999999
 30
419.0
 11
10618.5
 21
-1060.0
 31
419.0
  0
LINE
  5
193
330
1F
100
AcDbEntity
  8
Abbattitore
100
AcDbLine
 10
10618.5
 20
-1060.0
 30
419.0
 11
11176.5
 21
-1060.0
 31
419.0
  0
LINE
  5
194
330
1F
100
AcDbEntity
  8
Abbattitore
100
AcDbLine
 10
11176.5
 20
-509.9999999999999
 30
419.0
 11
11176.5
 21
-1060.0
 31
419.0
  0
LINE
  5
195
330
1F
100
AcDbEntity
  8
Abbattitore
100
AcDbLine
 10
10618.5
 20
-1060.0
 30
419.0
 11
10618.5
 21
-1060.0
 31
284.5000000000001
  0
LINE
  5
196
330
1F
100
AcDbEntity
  8
Abbattitore
100
AcDbLine
 10
10618.5
 20
-1060.0
 30
284.5000000000001
 11
11176.5
 21
-1060.0
 31
284.5000000000001
  0
LINE
  5
197
330
1F
100
AcDbEntity
  8
Abbattitore
100
AcDbLine
 10
11176.5
 20
-1060.0
 30
419.0
 11
11176.5
 21
-1060.0
 31
284.5000000000001
  0
LINE
  5
198
330
1F
100
AcDbEntity
  8
Abbattitore
100
AcDbLine
 10
10618.5
 20
-1060.0
 30
284.5000000000001
 11
10618.5
 21
-509.9999999999999
 31
284.5000000000001
  0
LINE
  5
199
330
1F
100
AcDbEntity
  8
Abbattitore
100
AcDbLine
 10
11176.5
 20
-509.9999999999999
 30
284.5000000000001
 11
11176.5
 21
-1060.0
 31
284.5000000000001
  0
LINE
  5
19A
330
1F
100
AcDbEntity
  8
Abbattitore
100
AcDbLine
 10
10618.5
 20
-1060.0
 30
0.0
 11
11176.5
 21
-1060.0
 31
0.0
  0
LINE
  5
19B
330
1F
100
AcDbEntity
  8
Abbattitore
100
AcDbLine
 10
11176.5
 20
-1060.0
 30
0.0
 11
11176.5
 21
-1060.0
 31
284.5000000000001
  0
LINE
  5
19C
330
1F
100
AcDbEntity
  8
Abbattitore
100
AcDbLine
 10
10618.5
 20
-1060.0
 30
0.0
 11
10618.5
 21
-1060.0
 31
284.5000000000001
  0
LINE
  5
19D
330
1F
100
AcDbEntity
  8
Abbattitore
100
AcDbLine
 10
11176.5
 20
-1060.0
 30
0.0
 11
11176.5
 21
-540.0436999271666
 31
0.0
  0
LINE
  5
19E
330
1F
100
AcDbEntity
  8
Abbattitore
100
AcDbLine
 10
11176.5
 20
-540.0436999271667
 30
29.99999999999999
 11
11176.5
 21
-509.9999999999999
 31
30.0
  0
LINE
  5
19F
330
1F
100
AcDbEntity
  8
Abbattitore
100
AcDbLine
 10
11176.5
 20
-540.0436999271666
 30
0.0
 11
11176.5
 21
-540.0436999271667
 31
29.99999999999999
  0
LINE
  5
1A0
330
1F
100
AcDbEntity
  8
Abbattitore
100
AcDbLine
 10
10618.5
 20
-509.9999999999999
 30
30.0
 11
11176.5
 21
-509.9999999999999
 31
30.0
  0
LINE
  5
1A1
330
1F
100
AcDbEntity
  8
Abbattitore
100
AcDbLine
 10
10618.5
 20
-509.9999999999999
 30
30.0
 11
10618.5
 21
-540.0436999271667
 31
29.99999999999999
  0
LINE
  5
1A2
330
1F
100
AcDbEntity
  8
Abbattitore
100
AcDbLine
 10
10618.5
 20
-540.0436999271667
 30
29.99999999999999
 11
10618.5
 21
-540.0436999271667
 31
0.0
  0
LINE
  5
1A3
330
1F
100
AcDbEntity
  8
Abbattitore
100
AcDbLine
 10
10618.5
 20
-540.0436999271667
 30
0.0
 11
11176.5
 21
-540.0436999271666
 31
0.0
  0
LINE
  5
1A4
330
1F
100
AcDbEntity
  8
Abbattitore
100
AcDbLine
 10
11176.5
 20
-509.9999999999999
 30
30.0
 11
11176.5
 21
-509.9999999999999
 31
284.5000000000001
  0
LINE
  5
1A5
330
1F
100
AcDbEntity
  8
Abbattitore
100
AcDbLine
 10
10618.5
 20
-509.9999999999999
 30
30.0
 11
10618.5
 21
-509.9999999999999
 31
284.5000000000001
  0
LINE
  5
1A6
330
1F
100
AcDbEntity
  8
Abbattitore
100
AcDbLine
 10
10618.5
 20
-540.0436999271667
 30
0.0
 11
10618.5
 21
-1060.0
 31
0.0
  0
LINE
  5
1A7
330
1F
100
AcDbEntity
  8
Abbattitore
100
AcDbLine
 10
10618.5
 20
-540.0436999271667
 30
29.99999999999999
 11
11176.5
 21
-540.0436999271667
 31
29.99999999999999
  0
LINE
  5
1A8
330
1F
100
AcDbEntity
  8
Abbattitore
100
AcDbLine
 10
10897.5
 20
-509.9999999999999
 30
284.5000000000001
 11
10897.5
 21
-509.9999999999999
 31
419.0
  0
LINE
  5
1A9
330
1F
100
AcDbEntity
  8
Abbattitore
100
AcDbLine
 10
10618.5
 20
-509.9999999999999
 30
351.75
 11
11176.5
 21
-509.9999999999999
 31
351.75
  0
LINE
  5
1AA
330
1F
100
AcDbEntity
  8
Abbattitore
100
AcDbLine
 10
10897.5
 20
-509.9999999999999
 30
419.0
 11
10897.5
 21
-1060.0
 31
419.0
  0
LINE
  5
1AB
330
1F
100
AcDbEntity
  8
Abbattitore
100
AcDbLine
 10
10618.5
 20
-785.0
 30
419.0
 11
11176.5
 21
-785.0
 31
419.0
  0
LINE
  5
1AC
330
1F
100
AcDbEntity
  8
Abbattitore
100
AcDbLine
 10
10897.5
 20
-1060.0
 30
419.0
 11
10897.5
 21
-1060.0
 31
284.5000000000001
  0
LINE
  5
1AD
330
1F
100
AcDbEntity
  8
Abbattitore
100
AcDbLine
 10
10618.5
 20
-1060.0
 30
351.75
 11
11176.5
 21
-1060.0
 31
351.75
  0
LINE
  5
1AE
330
1F
100
AcDbEntity
  8
Abbattitore
100
AcDbLine
 10
10618.5
 20
-785.0
 30
284.5000000000001
 11
10618.5
 21
-785.0
 31
419.0
  0
LINE
  5
1AF
330
1F
100
AcDbEntity
  8
Abbattitore
100
AcDbLine
 10
10618.5
 20
-509.9999999999999
 30
351.75
 11
10618.5
 21
-1060.0
 31
351.75
  0
LINE
  5
1B0
330
1F
100
AcDbEntity
  8
Abbattitore
100
AcDbLine
 10
11176.5
 20
-785.0
 30
284.5000000000001
 11
11176.5
 21
-785.0
 31
419.0
  0
LINE
  5
1B1
330
1F
100
AcDbEntity
  8
Abbattitore
100
AcDbLine
 10
11176.5
 20
-509.9999999999999
 30
351.75
 11
11176.5
 21
-1060.0
 31
351.75
  0
LINE
  5
1B2
330
1F
100
AcDbEntity
  8
Abbattitore
100
AcDbLine
 10
11176.5
 20
-1060.0
 30
224.25
 11
11176.5
 21
-509.9999999999999
 31
224.25
  0
LINE
  5
1B3
330
1F
100
AcDbEntity
  8
Abbattitore
100
AcDbLine
 10
11176.5
 20
-785.0
 30
0.0
 11
11176.5
 21
-785.0
 31
284.5000000000001
  0
LINE
  5
1B4
330
1F
100
AcDbEntity
  8
Abbattitore
100
AcDbLine
 10
10618.5
 20
-509.9999999999999
 30
224.25
 11
10618.5
 21
-1060.0
 31
224.25
  0
LINE
  5
1B5
330
1F
100
AcDbEntity
  8
Abbattitore
100
AcDbLine
 10
10618.5
 20
-785.0
 30
0.0
 11
10618.5
 21
-785.0
 31
284.5000000000001
  0
LINE
  5
1B6
330
1F
100
AcDbEntity
  8
Abbattitore
100
AcDbLine
 10
10618.5
 20
-525.0218499635832
 30
30.0
 11
11176.5
 21
-525.0218499635832
 31
30.0
  0
LINE
  5
1B7
330
1F
100
AcDbEntity
  8
Abbattitore
100
AcDbLine
 10
10618.5
 20
-540.0436999271667
 30
15.0
 11
11176.5
 21
-540.0436999271667
 31
15.0
  0
LINE
  5
1B8
330
1F
100
AcDbEntity
  8
Abbattitore
100
AcDbLine
 10
11176.5
 20
-509.9999999999999
 30
224.25
 11
10618.5
 21
-509.9999999999999
 31
224.25
  0
LINE
  5
1B9
330
1F
100
AcDbEntity
  8
Abbattitore
100
AcDbLine
 10
10897.5
 20
-509.9999999999999
 30
30.00000000000002
 11
10897.5
 21
-509.9999999999999
 31
284.5000000000001
  0
LINE
  5
1BA
330
1F
100
AcDbEntity
  8
Abbattitore
100
AcDbLine
 10
10618.5
 20
-785.0
 30
0.0
 11
11176.5
 21
-785.0
 31
0.0
  0
LINE
  5
1BB
330
1F
100
AcDbEntity
  8
Abbattitore
100
AcDbLine
 10
10897.5
 20
-1060.0
 30
0.0
 11
10897.5
 21
-540.0436999271666
 31
0.0
  0
LINE
  5
1BC
330
1F
100
AcDbEntity
  8
Abbattitore
100
AcDbLine
 10
10618.5
 20
-1060.0
 30
224.25
 11
11176.5
 21
-1060.0
 31
224.25
  0
LINE
  5
1BD
330
1F
100
AcDbEntity
  8
Abbattitore
100
AcDbLine
 10
10897.5
 20
-1060.0
 30
0.0
 11
10897.5
 21
-1060.0
 31
284.5
  0
DIMENSION
  5
1BE
330
1F
100
AcDbEntity
  8
Dimensioni
100
AcDbDimension
  2
*D3
 10
11264.5
 20
0.0
 30
0.0
 11
11250.75
 21
298.5
 31
0.0
 70
    32
  1
<>
 71
     5
 42
597.0
 73
     0
 74
     0
 75
     0
210
0.0
220
-1.0
230
0.0
  3
Millimeter Large
100
AcDbAlignedDimension
 13
11195.0
 23
0.0
 33
597.0
 14
11194.5
 24
0.0
 34
0.0
 50
90.0
100
AcDbRotatedDimension
1001
ACAD
1000
DSTYLE
1002
{
1070
    74
1070
     0
1070
   173
1070
     0
1070
   342
1005
A4
1070
   143
1040
0.0393700787401575
1070
    41
1040
2.0
1070
    79
1070
     1
1070
   141
1040
3.5
1070
   271
1070
     1
1070
    44
1040
1.0
1070
    42
1040
0.5
1070
   147
1040
1.0
1070
    40
1040
5.0
1070
    77
1070
     1
1070
    73
1070
     0
1070
   174
1070
     0
1070
   279
1070
     0
1070
   340
1005
A2
1070
   140
1040
3.5
1070
   284
1070
     1
1070
    78
1070
     1
1002
}
  0
LINE
  5
1CB
330
1F
100
AcDbEntity
  8
Rivestimento
100
AcDbLine
 10
10600.0
 20
-1083.4
 30
0.0
 11
11195.0
 21
-1083.4
 31
0.0
  0
LINE
  5
1CC
330
1F
100
AcDbEntity
  8
Rivestimento
100
AcDbLine
 10
11195.0
 20
-1083.4
 30
0.0
 11
11195.0
 21
-1083.4
 31
457.0
  0
LINE
  5
1CD
330
1F
100
AcDbEntity
  8
Rivestimento
100
AcDbLine
 10
10600.0
 20
-1083.4
 30
457.0
 11
11195.0
 21
-1083.4
 31
457.0
  0
LINE
  5
1CE
330
1F
100
AcDbEntity
  8
Rivestimento
100
AcDbLine
 10
10600.0
 20
-1083.4
 30
0.0
 11
10600.0
 21
-1083.4
 31
457.0
  0
LINE
  5
1CF
330
1F
100
AcDbEntity
  8
Rivestimento
100
AcDbLine
 10
11195.0
 20
-1083.4
 30
0.0
 11
11195.0
 21
-1080.0
 31
0.0
  0
LINE
  5
1D0
330
1F
100
AcDbEntity
  8
Rivestimento
100
AcDbLine
 10
11195.0
 20
-1080.0
 30
0.0
 11
11195.0
 21
-1080.0
 31
457.0
  0
LINE
  5
1D1
330
1F
100
AcDbEntity
  8
Rivestimento
100
AcDbLine
 10
11195.0
 20
-1083.4
 30
457.0
 11
11195.0
 21
-1080.0
 31
457.0
  0
LINE
  5
1D2
330
1F
100
AcDbEntity
  8
Rivestimento
100
AcDbLine
 10
11195.0
 20
-1080.0
 30
0.0
 11
10600.0
 21
-1080.0
 31
0.0
  0
LINE
  5
1D3
330
1F
100
AcDbEntity
  8
Rivestimento
100
AcDbLine
 10
10600.0
 20
-1080.0
 30
0.0
 11
10600.0
 21
-1080.0
 31
457.0
  0
LINE
  5
1D4
330
1F
100
AcDbEntity
  8
Rivestimento
100
AcDbLine
 10
11195.0
 20
-1080.0
 30
457.0
 11
10600.0
 21
-1080.0
 31
457.0
  0
LINE
  5
1D5
330
1F
100
AcDbEntity
  8
Rivestimento
100
AcDbLine
 10
10600.0
 20
-1080.0
 30
0.0
 11
10600.0
 21
-1083.4
 31
0.0
  0
LINE
  5
1D6
330
1F
100
AcDbEntity
  8
Rivestimento
100
AcDbLine
 10
10600.0
 20
-1080.0
 30
457.0
 11
10600.0
 21
-1083.4
 31
457.0
  0
LINE
  5
1D7
330
1F
100
AcDbEntity
  8
Rivestimento
100
AcDbLine
 10
10600.0
 20
-1083.4
 30
228.5
 11
11195.0
 21
-1083.4
 31
228.5
  0
LINE
  5
1D8
330
1F
100
AcDbEntity
  8
Rivestimento
100
AcDbLine
 10
10897.5
 20
-1083.4
 30
0.0
 11
10897.5
 21
-1083.4
 31
457.0
  0
LINE
  5
1D9
330
1F
100
AcDbEntity
  8
Rivestimento
100
AcDbLine
 10
11195.0
 20
-1083.4
 30
228.5
 11
11195.0
 21
-1080.0
 31
228.5
  0
LINE
  5
1DA
330
1F
100
AcDbEntity
  8
Rivestimento
100
AcDbLine
 10
11195.0
 20
-1081.7
 30
0.0
 11
11195.0
 21
-1081.7
 31
457.0
  0
LINE
  5
1DB
330
1F
100
AcDbEntity
  8
Rivestimento
100
AcDbLine
 10
11195.0
 20
-1080.0
 30
228.5
 11
10600.0
 21
-1080.0
 31
228.5
  0
LINE
  5
1DC
330
1F
100
AcDbEntity
  8
Rivestimento
100
AcDbLine
 10
10897.5
 20
-1080.0
 30
0.0
 11
10897.5
 21
-1080.0
 31
457.0
  0
LINE
  5
1DD
330
1F
100
AcDbEntity
  8
Rivestimento
100
AcDbLine
 10
10600.0
 20
-1080.0
 30
228.5
 11
10600.0
 21
-1083.4
 31
228.5
  0
LINE
  5
1DE
330
1F
100
AcDbEntity
  8
Rivestimento
100
AcDbLine
 10
10600.0
 20
-1081.7
 30
0.0
 11
10600.0
 21
-1081.7
 31
457.0
  0
LINE
  5
1DF
330
1F
100
AcDbEntity
  8
Rivestimento
100
AcDbLine
 10
10600.0
 20
-1081.7
 30
0.0
 11
11195.0
 21
-1081.7
 31
0.0
  0
LINE
  5
1E0
330
1F
100
AcDbEntity
  8
Rivestimento
100
AcDbLine
 10
10897.5
 20
-1083.4
 30
0.0
 11
10897.5
 21
-1080.0
 31
0.0
  0
LINE
  5
1E1
330
1F
100
AcDbEntity
  8
Rivestimento
100
AcDbLine
 10
10600.0
 20
-1081.7
 30
457.0
 11
11195.0
 21
-1081.7
 31
457.0
  0
LINE
  5
1E2
330
1F
100
AcDbEntity
  8
Rivestimento
100
AcDbLine
 10
10897.5
 20
-1083.4
 30
457.0
 11
10897.5
 21
-1080.0
 31
457.0
  0
LINE
  5
1E3
330
1F
100
AcDbEntity
  8
Frontalino
100
AcDbLine
 10
10600.0
 20
-1070.0
 30
427.0
 11
10600.0
 21
-1066.6
 31
427.0
  0
LINE
  5
1E4
330
1F
100
AcDbEntity
  8
Frontalino
100
AcDbLine
 10
10600.0
 20
-1066.6
 30
427.0
 11
10600.0
 21
-1066.6
 31
-0.0000000000001137
  0
LINE
  5
1E5
330
1F
100
AcDbEntity
  8
Frontalino
100
AcDbLine
 10
10600.0
 20
-1070.0
 30
-0.0000000000001137
 11
10600.0
 21
-1066.6
 31
-0.0000000000001137
  0
LINE
  5
1E6
330
1F
100
AcDbEntity
  8
Frontalino
100
AcDbLine
 10
10600.0
 20
-1070.0
 30
427.0
 11
10600.0
 21
-1070.0
 31
-0.0000000000001137
  0
LINE
  5
1E7
330
1F
100
AcDbEntity
  8
Frontalino
100
AcDbLine
 10
10600.0
 20
-1066.6
 30
427.0
 11
11195.0
 21
-1066.6
 31
427.0
  0
LINE
  5
1E8
330
1F
100
AcDbEntity
  8
Frontalino
100
AcDbLine
 10
11195.0
 20
-1066.6
 30
427.0
 11
11195.0
 21
-1066.6
 31
-0.0000000000001137
  0
LINE
  5
1E9
330
1F
100
AcDbEntity
  8
Frontalino
100
AcDbLine
 10
10600.0
 20
-1066.6
 30
-0.0000000000001137
 11
11195.0
 21
-1066.6
 31
-0.0000000000001137
  0
LINE
  5
1EA
330
1F
100
AcDbEntity
  8
Frontalino
100
AcDbLine
 10
11195.0
 20
-1066.6
 30
427.0
 11
11195.0
 21
-1070.0
 31
427.0
  0
LINE
  5
1EB
330
1F
100
AcDbEntity
  8
Frontalino
100
AcDbLine
 10
11195.0
 20
-1070.0
 30
427.0
 11
11195.0
 21
-1070.0
 31
-0.0000000000001137
  0
LINE
  5
1EC
330
1F
100
AcDbEntity
  8
Frontalino
100
AcDbLine
 10
11195.0
 20
-1066.6
 30
-0.0000000000001137
 11
11195.0
 21
-1070.0
 31
-0.0000000000001137
  0
LINE
  5
1ED
330
1F
100
AcDbEntity
  8
Frontalino
100
AcDbLine
 10
11195.0
 20
-1070.0
 30
427.0
 11
10600.0
 21
-1070.0
 31
427.0
  0
LINE
  5
1EE
330
1F
100
AcDbEntity
  8
Frontalino
100
AcDbLine
 10
11195.0
 20
-1070.0
 30
-0.0000000000001137
 11
10600.0
 21
-1070.0
 31
-0.0000000000001137
  0
LINE
  5
1EF
330
1F
100
AcDbEntity
  8
Frontalino
100
AcDbLine
 10
10600.0
 20
-1070.0
 30
213.4999999999999
 11
10600.0
 21
-1066.6
 31
213.4999999999999
  0
LINE
  5
1F0
330
1F
100
AcDbEntity
  8
Frontalino
100
AcDbLine
 10
10600.0
 20
-1068.3
 30
427.0
 11
10600.0
 21
-1068.3
 31
-0.0000000000001137
  0
LINE
  5
1F1
330
1F
100
AcDbEntity
  8
Frontalino
100
AcDbLine
 10
10600.0
 20
-1066.6
 30
213.4999999999999
 11
11195.0
 21
-1066.6
 31
213.4999999999999
  0
LINE
  5
1F2
330
1F
100
AcDbEntity
  8
Frontalino
100
AcDbLine
 10
10897.5
 20
-1066.6
 30
427.0
 11
10897.5
 21
-1066.6
 31
-0.0000000000001137
  0
LINE
  5
1F3
330
1F
100
AcDbEntity
  8
Frontalino
100
AcDbLine
 10
11195.0
 20
-1066.6
 30
213.4999999999999
 11
11195.0
 21
-1070.0
 31
213.4999999999999
  0
LINE
  5
1F4
330
1F
100
AcDbEntity
  8
Frontalino
100
AcDbLine
 10
11195.0
 20
-1068.3
 30
427.0
 11
11195.0
 21
-1068.3
 31
-0.0000000000001137
  0
LINE
  5
1F5
330
1F
100
AcDbEntity
  8
Frontalino
100
AcDbLine
 10
11195.0
 20
-1070.0
 30
213.4999999999999
 11
10600.0
 21
-1070.0
 31
213.4999999999999
  0
LINE
  5
1F6
330
1F
100
AcDbEntity
  8
Frontalino
100
AcDbLine
 10
10897.5
 20
-1070.0
 30
427.0
 11
10897.5
 21
-1070.0
 31
-0.0000000000001137
  0
LINE
  5
1F7
330
1F
100
AcDbEntity
  8
Frontalino
100
AcDbLine
 10
11195.0
 20
-1068.3
 30
427.0
 11
10600.0
 21
-1068.3
 31
427.0
  0
LINE
  5
1F8
330
1F
100
AcDbEntity
  8
Frontalino
100
AcDbLine
 10
10897.5
 20
-1070.0
 30
427.0
 11
10897.5
 21
-1066.6
 31
427.0
  0
LINE
  5
1F9
330
1F
100
AcDbEntity
  8
Frontalino
100
AcDbLine
 10
11195.0
 20
-1068.3
 30
-0.0000000000001137
 11
10600.0
 21
-1068.3
 31
-0.0000000000001137
  0
LINE
  5
1FA
330
1F
100
AcDbEntity
  8
Frontalino
100
AcDbLine
 10
10897.5
 20
-1070.0
 30
-0.0000000000001137
 11
10897.5
 21
-1066.6
 31
-0.0000000000001137
  0
LINE
  5
1FB
330
1F
100
AcDbEntity
  8
Frontalino
100
AcDbLine
 10
10600.0
 20
-1080.0
 30
-0.0000000000000568
 11
11195.0
 21
-1080.0
 31
-0.0000000000000568
  0
LINE
  5
1FC
330
1F
100
AcDbEntity
  8
Frontalino
100
AcDbLine
 10
11195.0
 20
-1080.0
 30
-0.0000000000000568
 11
11195.0
 21
-1080.0
 31
427.0
  0
LINE
  5
1FD
330
1F
100
AcDbEntity
  8
Frontalino
100
AcDbLine
 10
10600.0
 20
-1080.0
 30
427.0
 11
11195.0
 21
-1080.0
 31
427.0
  0
LINE
  5
1FE
330
1F
100
AcDbEntity
  8
Frontalino
100
AcDbLine
 10
10600.0
 20
-1080.0
 30
-0.0000000000000568
 11
10600.0
 21
-1080.0
 31
427.0
  0
LINE
  5
1FF
330
1F
100
AcDbEntity
  8
Frontalino
100
AcDbLine
 10
11195.0
 20
-1080.0
 30
-0.0000000000000568
 11
11195.0
 21
-1070.0
 31
-0.0000000000000568
  0
LINE
  5
200
330
1F
100
AcDbEntity
  8
Frontalino
100
AcDbLine
 10
11195.0
 20
-1070.0
 30
-0.0000000000000568
 11
11195.0
 21
-1070.0
 31
427.0
  0
LINE
  5
201
330
1F
100
AcDbEntity
  8
Frontalino
100
AcDbLine
 10
11195.0
 20
-1080.0
 30
427.0
 11
11195.0
 21
-1070.0
 31
427.0
  0
LINE
  5
202
330
1F
100
AcDbEntity
  8
Frontalino
100
AcDbLine
 10
11195.0
 20
-1070.0
 30
-0.0000000000000568
 11
10600.0
 21
-1070.0
 31
-0.0000000000000568
  0
LINE
  5
203
330
1F
100
AcDbEntity
  8
Frontalino
100
AcDbLine
 10
10600.0
 20
-1070.0
 30
-0.0000000000000568
 11
10600.0
 21
-1070.0
 31
427.0
  0
LINE
  5
204
330
1F
100
AcDbEntity
  8
Frontalino
100
AcDbLine
 10
11195.0
 20
-1070.0
 30
427.0
 11
10600.0
 21
-1070.0
 31
427.0
  0
LINE
  5
205
330
1F
100
AcDbEntity
  8
Frontalino
100
AcDbLine
 10
10600.0
 20
-1070.0
 30
-0.0000000000000568
 11
10600.0
 21
-1080.0
 31
-0.0000000000000568
  0
LINE
  5
206
330
1F
100
AcDbEntity
  8
Frontalino
100
AcDbLine
 10
10600.0
 20
-1070.0
 30
427.0
 11
10600.0
 21
-1080.0
 31
427.0
  0
LINE
  5
207
330
1F
100
AcDbEntity
  8
Frontalino
100
AcDbLine
 10
10600.0
 20
-1080.0
 30
213.5
 11
11195.0
 21
-1080.0
 31
213.5
  0
LINE
  5
208
330
1F
100
AcDbEntity
  8
Frontalino
100
AcDbLine
 10
10897.5
 20
-1080.0
 30
-0.0000000000000568
 11
10897.5
 21
-1080.0
 31
427.0
  0
LINE
  5
209
330
1F
100
AcDbEntity
  8
Frontalino
100
AcDbLine
 10
11195.0
 20
-1080.0
 30
213.5
 11
11195.0
 21
-1070.0
 31
213.5
  0
LINE
  5
20A
330
1F
100
AcDbEntity
  8
Frontalino
100
AcDbLine
 10
11195.0
 20
-1075.0
 30
-0.0000000000000568
 11
11195.0
 21
-1075.0
 31
427.0
  0
LINE
  5
20B
330
1F
100
AcDbEntity
  8
Frontalino
100
AcDbLine
 10
11195.0
 20
-1070.0
 30
213.5
 11
10600.0
 21
-1070.0
 31
213.5
  0
LINE
  5
20C
330
1F
100
AcDbEntity
  8
Frontalino
100
AcDbLine
 10
10897.5
 20
-1070.0
 30
-0.0000000000000568
 11
10897.5
 21
-1070.0
 31
427.0
  0
LINE
  5
20D
330
1F
100
AcDbEntity
  8
Frontalino
100
AcDbLine
 10
10600.0
 20
-1070.0
 30
213.5
 11
10600.0
 21
-1080.0
 31
213.5
  0
LINE
  5
20E
330
1F
100
AcDbEntity
  8
Frontalino
100
AcDbLine
 10
10600.0
 20
-1075.0
 30
-0.0000000000000568
 11
10600.0
 21
-1075.0
 31
427.0
  0
LINE
  5
20F
330
1F
100
AcDbEntity
  8
Frontalino
100
AcDbLine
 10
10600.0
 20
-1075.0
 30
-0.0000000000000568
 11
11195.0
 21
-1075.0
 31
-0.0000000000000568
  0
LINE
  5
210
330
1F
100
AcDbEntity
  8
Frontalino
100
AcDbLine
 10
10897.5
 20
-1080.0
 30
-0.0000000000000568
 11
10897.5
 21
-1070.0
 31
-0.0000000000000568
  0
LINE
  5
211
330
1F
100
AcDbEntity
  8
Frontalino
100
AcDbLine
 10
10600.0
 20
-1075.0
 30
427.0
 11
11195.0
 21
-1075.0
 31
427.0
  0
LINE
  5
212
330
1F
100
AcDbEntity
  8
Frontalino
100
AcDbLine
 10
10897.5
 20
-1080.0
 30
427.0
 11
10897.5
 21
-1070.0
 31
427.0
  0
LINE
  5
213
330
1F
100
AcDbEntity
  8
Frontalino
100
AcDbLine
 10
10600.0
 20
-1066.6
 30
0.0
 11
11195.0
 21
-1066.6
 31
0.0
  0
LINE
  5
214
330
1F
100
AcDbEntity
  8
Frontalino
100
AcDbLine
 10
11195.0
 20
-1066.6
 30
0.0
 11
11195.0
 21
-1066.6
 31
597.0
  0
LINE
  5
215
330
1F
100
AcDbEntity
  8
Frontalino
100
AcDbLine
 10
10600.0
 20
-1066.6
 30
597.0
 11
11195.0
 21
-1066.6
 31
597.0
  0
LINE
  5
216
330
1F
100
AcDbEntity
  8
Frontalino
100
AcDbLine
 10
10600.0
 20
-1066.6
 30
0.0
 11
10600.0
 21
-1066.6
 31
597.0
  0
LINE
  5
217
330
1F
100
AcDbEntity
  8
Frontalino
100
AcDbLine
 10
11195.0
 20
-1066.6
 30
0.0
 11
11195.0
 21
-1060.0
 31
0.0
  0
LINE
  5
218
330
1F
100
AcDbEntity
  8
Frontalino
100
AcDbLine
 10
11195.0
 20
-1060.0
 30
0.0
 11
11195.0
 21
-1060.0
 31
597.0
  0
LINE
  5
219
330
1F
100
AcDbEntity
  8
Frontalino
100
AcDbLine
 10
11195.0
 20
-1066.6
 30
597.0
 11
11195.0
 21
-1060.0
 31
597.0
  0
LINE
  5
21A
330
1F
100
AcDbEntity
  8
Frontalino
100
AcDbLine
 10
11195.0
 20
-1060.0
 30
0.0
 11
10600.0
 21
-1060.0
 31
0.0
  0
LINE
  5
21B
330
1F
100
AcDbEntity
  8
Frontalino
100
AcDbLine
 10
10600.0
 20
-1060.0
 30
0.0
 11
10600.0
 21
-1060.0
 31
597.0
  0
LINE
  5
21C
330
1F
100
AcDbEntity
  8
Frontalino
100
AcDbLine
 10
11195.0
 20
-1060.0
 30
597.0
 11
10600.0
 21
-1060.0
 31
597.0
  0
LINE
  5
21D
330
1F
100
AcDbEntity
  8
Frontalino
100
AcDbLine
 10
10600.0
 20
-1060.0
 30
0.0
 11
10600.0
 21
-1066.6
 31
0.0
  0
LINE
  5
21E
330
1F
100
AcDbEntity
  8
Frontalino
100
AcDbLine
 10
10600.0
 20
-1060.0
 30
597.0
 11
10600.0
 21
-1066.6
 31
597.0
  0
LINE
  5
21F
330
1F
100
AcDbEntity
  8
Frontalino
100
AcDbLine
 10
10600.0
 20
-1066.6
 30
298.5
 11
11195.0
 21
-1066.6
 31
298.5
  0
LINE
  5
220
330
1F
100
AcDbEntity
  8
Frontalino
100
AcDbLine
 10
10897.5
 20
-1066.6
 30
0.0
 11
10897.5
 21
-1066.6
 31
597.0
  0
LINE
  5
221
330
1F
100
AcDbEntity
  8
Frontalino
100
AcDbLine
 10
11195.0
 20
-1066.6
 30
298.5
 11
11195.0
 21
-1060.0
 31
298.5
  0
LINE
  5
222
330
1F
100
AcDbEntity
  8
Frontalino
100
AcDbLine
 10
11195.0
 20
-1063.3
 30
0.0
 11
11195.0
 21
-1063.3
 31
597.0
  0
LINE
  5
223
330
1F
100
AcDbEntity
  8
Frontalino
100
AcDbLine
 10
11195.0
 20
-1060.0
 30
298.5
 11
10600.0
 21
-1060.0
 31
298.5
  0
LINE
  5
224
330
1F
100
AcDbEntity
  8
Frontalino
100
AcDbLine
 10
10897.5
 20
-1060.0
 30
0.0
 11
10897.5
 21
-1060.0
 31
597.0
  0
LINE
  5
225
330
1F
100
AcDbEntity
  8
Frontalino
100
AcDbLine
 10
10600.0
 20
-1060.0
 30
298.5
 11
10600.0
 21
-1066.6
 31
298.5
  0
LINE
  5
226
330
1F
100
AcDbEntity
  8
Frontalino
100
AcDbLine
 10
10600.0
 20
-1063.3
 30
0.0
 11
10600.0
 21
-1063.3
 31
597.0
  0
LINE
  5
227
330
1F
100
AcDbEntity
  8
Frontalino
100
AcDbLine
 10
10600.0
 20
-1063.3
 30
0.0
 11
11195.0
 21
-1063.3
 31
0.0
  0
LINE
  5
228
330
1F
100
AcDbEntity
  8
Frontalino
100
AcDbLine
 10
10897.5
 20
-1066.6
 30
0.0
 11
10897.5
 21
-1060.0
 31
0.0
  0
LINE
  5
229
330
1F
100
AcDbEntity
  8
Frontalino
100
AcDbLine
 10
10600.0
 20
-1063.3
 30
597.0
 11
11195.0
 21
-1063.3
 31
597.0
  0
LINE
  5
22A
330
1F
100
AcDbEntity
  8
Frontalino
100
AcDbLine
 10
10897.5
 20
-1066.6
 30
597.0
 11
10897.5
 21
-1060.0
 31
597.0
  0
DIMENSION
  5
22B
330
1F
100
AcDbEntity
  8
0
100
AcDbDimension
  2
*D4
 10
0.0
 20
-1060.0
 30
633.0
 11
785.0
 21
646.75
 31
0.0
 70
    32
  1
<>
 71
     5
 42
550.0
 73
     0
 74
     0
 75
     0
210
-1.0
220
0.0
230
0.0
  3
Millimeter Large
100
AcDbAlignedDimension
 13
0.0
 23
-510.0
 33
583.0
 14
0.0
 24
-1060.0
 34
583.0
100
AcDbRotatedDimension
1001
ACAD
1000
DSTYLE
1002
{
1070
    74
1070
     0
1070
   173
1070
     0
1070
   342
1005
A4
1070
   143
1040
0.0393700787401575
1070
    41
1040
2.0
1070
    79
1070
     1
1070
   141
1040
3.5
1070
   271
1070
     1
1070
    44
1040
1.0
1070
    42
1040
0.5
1070
   147
1040
1.0
1070
    40
1040
5.0
1070
    77
1070
     1
1070
    73
1070
     0
1070
   174
1070
     0
1070
   279
1070
     0
1070
   340
1005
A2
1070
   140
1040
3.5
1070
   284
1070
     1
1070
    78
1070
     1
1002
}
  0
DIMENSION
  5
238
330
1F
100
AcDbEntity
  8
0
100
AcDbDimension
  2
*D5
 10
11195.0
 20
18410.0
 30
-60.0
 11
10897.5
 21
-46.25
 31
-18410.0
 70
    32
  1
<>
 71
     5
 42
595.0
 73
     0
 74
     0
 75
     0
210
0.0
220
-1.0
230
0.0
  3
Millimeter Large
100
AcDbAlignedDimension
 13
10600.0
 23
18410.0
 33
0.0
 14
11195.0
 24
18410.0
 34
0.0
100
AcDbRotatedDimension
1001
ACAD
1000
DSTYLE
1002
{
1070
    74
1070
     0
1070
   173
1070
     0
1070
   342
1005
A4
1070
   143
1040
0.0393700787401575
1070
    41
1040
2.0
1070
    79
1070
     1
1070
   141
1040
3.5
1070
   271
1070
     1
1070
    44
1040
1.0
1070
    42
1040
0.5
1070
   147
1040
1.0
1070
    40
1040
5.0
1070
    77
1070
     1
1070
    73
1070
     0
1070
   174
1070
     0
1070
   279
1070
     0
1070
   340
1005
A2
1070
   140
1040
3.5
1070
   284
1070
     1
1070
    78
1070
     1
1002
}
  0
DIMENSION
  5
245
330
1F
100
AcDbEntity
  8
Dimensioni
100
AcDbDimension
  2
*D6
 10
10540.0
 20
18410.0
 30
457.0
 11
10526.25
 21
228.5
 31
-18410.0
 70
    32
  1
<>
 71
     5
 42
457.0
 73
     0
 74
     0
 75
     0
210
0.0
220
-1.0
230
0.0
  3
Millimeter Large
100
AcDbAlignedDimension
 13
10600.0
 23
18410.0
 33
0.0
 14
10600.0
 24
18410.0
 34
457.0
 50
90.0
100
AcDbRotatedDimension
1001
ACAD
1000
DSTYLE
1002
{
1070
    74
1070
     0
1070
   173
1070
     0
1070
   342
1005
A4
1070
   143
1040
0.0393700787401575
1070
    41
1040
2.0
1070
    79
1070
     1
1070
   141
1040
3.5
1070
   271
1070
     1
1070
    44
1040
1.0
1070
    42
1040
0.5
1070
   147
1040
1.0
1070
    40
1040
5.0
1070
    77
1070
     1
1070
    73
1070
     0
1070
   174
1070
     0
1070
   279
1070
     0
1070
   340
1005
A2
1070
   140
1040
3.5
1070
   284
1070
     1
1070
    78
1070
     1
1002
}
  0
DIMENSION
  5
252
330
1F
100
AcDbEntity
  8
Dimensioni
100
AcDbDimension
  2
*D7
 10
10540.0
 20
18410.0
 30
457.0
 11
10526.25
 21
415.75
 31
-18410.0
 70
    32
  1
<>
 71
     5
 42
60.0
 73
     0
 74
     0
 75
     0
210
0.0
220
-1.0
230
0.0
  3
Millimeter Large
100
AcDbAlignedDimension
 13
10600.0
 23
18410.0
 33
517.0
 14
10600.0
 24
18410.0
 34
457.0
 50
90.0
100
AcDbRotatedDimension
1001
ACAD
1000
DSTYLE
1002
{
1070
    74
1070
     0
1070
   173
1070
     0
1070
   342
1005
A4
1070
   143
1040
0.0393700787401575
1070
    41
1040
2.0
1070
    79
1070
     1
1070
   141
1040
3.5
1070
   271
1070
     1
1070
    44
1040
1.0
1070
    42
1040
0.5
1070
   147
1040
1.0
1070
    40
1040
5.0
1070
    77
1070
     1
1070
    73
1070
     0
1070
   174
1070
     0
1070
   279
1070
     0
1070
   340
1005
A2
1070
   140
1040
3.5
1070
   284
1070
     1
1070
    78
1070
     1
1002
}
  0
DIMENSION
  5
260
330
1F
100
AcDbEntity
  8
Dimensioni
100
AcDbDimension
  2
*D8
 10
10540.0
 20
18410.0
 30
517.0
 11
10526.25
 21
557.0
 31
-18410.0
 70
    32
  1
<>
 71
     5
 42
80.0
 73
     0
 74
     0
 75
     0
210
0.0
220
-1.0
230
0.0
  3
Millimeter Large
100
AcDbAlignedDimension
 13
10600.0
 23
18410.0
 33
597.0
 14
10600.0
 24
18410.0
 34
517.0
 50
90.0
100
AcDbRotatedDimension
1001
ACAD
1000
DSTYLE
1002
{
1070
    74
1070
     0
1070
   173
1070
     0
1070
   342
1005
A4
1070
   143
1040
0.0393700787401575
1070
    41
1040
2.0
1070
    79
1070
     1
1070
   141
1040
3.5
1070
   271
1070
     1
1070
    44
1040
1.0
1070
    42
1040
0.5
1070
   147
1040
1.0
1070
    40
1040
5.0
1070
    77
1070
     1
1070
    73
1070
     0
1070
   174
1070
     0
1070
   279
1070
     0
1070
   340
1005
A2
1070
   140
1040
3.5
1070
   284
1070
     1
1070
    78
1070
     1
1002
}
  0
DIMENSION
  5
26D
330
1F
100
AcDbEntity
  8
Dimensioni
100
AcDbDimension
  2
*D9
 10
11195.0
 20
18410.0
 30
524.5
 11
10897.5
 21
538.25
 31
-18410.0
 70
    32
  1
<>
 71
     5
 42
595.0
 73
     0
 74
     0
 75
     0
210
0.0
220
-1.0
230
0.0
  3
Millimeter Large
100
AcDbAlignedDimension
 13
10600.0
 23
18410.0
 33
460.0
 14
11195.0
 24
18410.0
 34
460.0
100
AcDbRotatedDimension
1001
ACAD
1000
DSTYLE
1002
{
1070
    74
1070
     0
1070
   173
1070
     0
1070
   342
1005
A4
1070
   143
1040
0.0393700787401575
1070
    41
1040
2.0
1070
    79
1070
     1
1070
   141
1040
3.5
1070
   271
1070
     1
1070
    44
1040
1.0
1070
    42
1040
0.5
1070
   147
1040
1.0
1070
    40
1040
5.0
1070
    77
1070
     1
1070
    73
1070
     0
1070
   174
1070
     0
1070
   279
1070
     0
1070
   340
1005
A2
1070
   140
1040
3.5
1070
   284
1070
     1
1070
    78
1070
     1
1002
}
  0
DIMENSION
  5
27A
330
1F
100
AcDbEntity
  8
0
100
AcDbDimension
  2
*D10
 10
11176.5
 20
-460.0
 30
1120.000000000026
 11
10897.5
 21
-446.25
 31
1120.000000000026
 70
    32
  1
<>
 71
     5
 42
558.0
 73
     0
 74
     0
 75
     0
  3
Millimeter Large
100
AcDbAlignedDimension
 13
10618.5
 23
-510.8
 33
1120.000000000026
 14
11176.5
 24
-510.8
 34
1120.000000000026
100
AcDbRotatedDimension
1001
ACAD
1000
DSTYLE
1002
{
1070
    74
1070
     0
1070
   173
1070
     0
1070
   342
1005
A4
1070
   143
1040
0.0393700787401575
1070
    41
1040
2.0
1070
    79
1070
     1
1070
   141
1040
3.5
1070
   271
1070
     1
1070
    44
1040
1.0
1070
    42
1040
0.5
1070
   147
1040
1.0
1070
    40
1040
5.0
1070
    77
1070
     1
1070
    73
1070
     0
1070
   174
1070
     0
1070
   279
1070
     0
1070
   340
1005
A2
1070
   140
1040
3.5
1070
   284
1070
     1
1070
    78
1070
     1
1002
}
  0
DIMENSION
  5
287
330
1F
100
AcDbEntity
  8
Dimensioni
100
AcDbDimension
  2
*D11
 10
10560.0
 20
-1083.4
 30
1120.000000000026
 11
10546.25
 21
-1125.483333333334
 31
1120.000000000026
 70
    32
  1
<>
 71
     5
 42
23.40000000000009
 73
     0
 74
     0
 75
     0
  3
Millimeter Large
100
AcDbAlignedDimension
 13
10600.5
 23
-1060.0
 33
1120.000000000026
 14
10600.5
 24
-1083.4
 34
1120.000000000026
 50
90.0
100
AcDbRotatedDimension
1001
ACAD
1000
DSTYLE
1002
{
1070
    74
1070
     0
1070
   173
1070
     0
1070
   342
1005
A4
1070
   143
1040
0.0393700787401575
1070
    41
1040
2.0
1070
    79
1070
     1
1070
   141
1040
3.5
1070
   271
1070
     1
1070
    44
1040
1.0
1070
    42
1040
0.5
1070
   147
1040
1.0
1070
    40
1040
5.0
1070
    77
1070
     1
1070
    73
1070
     0
1070
   174
1070
     0
1070
   279
1070
     0
1070
   340
1005
A2
1070
   140
1040
3.5
1070
   284
1070
     1
1070
    78
1070
     1
1002
}
  0
DIMENSION
  5
295
330
1F
100
AcDbEntity
  8
Dimensioni
100
AcDbDimension
  2
*D12
 10
10560.0
 20
-1060.0
 30
1120.000000000026
 11
10546.25
 21
-785.0
 31
1120.000000000026
 70
    32
  1
<>
 71
     5
 42
550.0
 73
     0
 74
     0
 75
     0
  3
Millimeter Large
100
AcDbAlignedDimension
 13
10618.5
 23
-510.0
 33
1120.000000000026
 14
10610.0
 24
-1060.0
 34
1120.000000000026
 50
90.0
100
AcDbRotatedDimension
1001
ACAD
1000
DSTYLE
1002
{
1070
    74
1070
     0
1070
   173
1070
     0
1070
   342
1005
A4
1070
   143
1040
0.0393700787401575
1070
    41
1040
2.0
1070
    79
1070
     1
1070
   141
1040
3.5
1070
   271
1070
     1
1070
    44
1040
1.0
1070
    42
1040
0.5
1070
   147
1040
1.0
1070
    40
1040
5.0
1070
    77
1070
     1
1070
    73
1070
     0
1070
   174
1070
     0
1070
   279
1070
     0
1070
   340
1005
A2
1070
   140
1040
3.5
1070
   284
1070
     1
1070
    78
1070
     1
1002
}
  0
DIMENSION
  5
2A2
330
1F
100
AcDbEntity
  8
0
100
AcDbDimension
  2
*D13
 10
11236.5
 20
-1083.4
 30
1120.000000000026
 11
11222.75
 21
-796.6999999999999
 31
1120.000000000026
 70
    32
  1
<>
 71
     5
 42
573.3999999999999
 73
     0
 74
     0
 75
     0
  3
Millimeter Large
100
AcDbAlignedDimension
 13
11176.5
 23
-510.0
 33
1120.000000000026
 14
11194.5
 24
-1083.4
 34
1120.000000000026
 50
90.0
100
AcDbRotatedDimension
1001
ACAD
1000
DSTYLE
1002
{
1070
    74
1070
     0
1070
   173
1070
     0
1070
   342
1005
A4
1070
   143
1040
0.0393700787401575
1070
    41
1040
2.0
1070
    79
1070
     1
1070
   141
1040
3.5
1070
   271
1070
     1
1070
    44
1040
1.0
1070
    42
1040
0.5
1070
   147
1040
1.0
1070
    40
1040
5.0
1070
    77
1070
     1
1070
    73
1070
     0
1070
   174
1070
     0
1070
   279
1070
     0
1070
   340
1005
A2
1070
   140
1040
3.5
1070
   284
1070
     1
1070
    78
1070
     1
1002
}
  0
DIMENSION
  5
2AF
330
1F
100
AcDbEntity
  8
0
100
AcDbDimension
  2
*D14
 10
10600.0
 20
-1143.4
 30
1120.000000000026
 11
10897.5
 21
-1129.65
 31
1120.000000000026
 70
    32
  1
<>
 71
     5
 42
595.0
 73
     0
 74
     0
 75
     0
  3
Millimeter Large
100
AcDbAlignedDimension
 13
11195.0
 23
-1083.4
 33
1120.000000000026
 14
10600.0
 24
-1083.4
 34
1120.000000000026
100
AcDbRotatedDimension
1001
ACAD
1000
DSTYLE
1002
{
1070
    74
1070
     0
1070
   173
1070
     0
1070
   342
1005
A4
1070
   143
1040
0.0393700787401575
1070
    41
1040
2.0
1070
    79
1070
     1
1070
   141
1040
3.5
1070
   271
1070
     1
1070
    44
1040
1.0
1070
    42
1040
0.5
1070
   147
1040
1.0
1070
    40
1040
5.0
1070
    77
1070
     1
1070
    73
1070
     0
1070
   174
1070
     0
1070
   279
1070
     0
1070
   340
1005
A2
1070
   140
1040
3.5
1070
   284
1070
     1
1070
    78
1070
     1
1002
}
  0
DIMENSION
  5
2BC
330
1F
100
AcDbEntity
  8
0
100
AcDbDimension
  2
*D15
 10
0.0
 20
-1083.4
 30
-60.0
 11
796.7
 21
-46.25
 31
0.0
 70
    32
  1
<>
 71
     5
 42
573.4000000000002
 73
     0
 74
     0
 75
     0
210
-1.0
220
0.0
230
0.0
  3
Millimeter Large
100
AcDbAlignedDimension
 13
0.0
 23
-509.9999999999999
 33
30.0
 14
0.0
 24
-1083.4
 34
30.0
100
AcDbRotatedDimension
1001
ACAD
1000
DSTYLE
1002
{
1070
    74
1070
     0
1070
   173
1070
     0
1070
   342
1005
A4
1070
   143
1040
0.0393700787401575
1070
    41
1040
2.0
1070
    79
1070
     1
1070
   141
1040
3.5
1070
   271
1070
     1
1070
    44
1040
1.0
1070
    42
1040
0.5
1070
   147
1040
1.0
1070
    40
1040
5.0
1070
    77
1070
     1
1070
    73
1070
     0
1070
   174
1070
     0
1070
   279
1070
     0
1070
   340
1005
A2
1070
   140
1040
3.5
1070
   284
1070
     1
1070
    78
1070
     1
1002
}
  0
DIMENSION
  5
2C9
330
1F
100
AcDbEntity
  8
0
100
AcDbDimension
  2
*D16
 10
0.0
 20
-1060.0
 30
633.0
 11
1017.916666666667
 21
646.75
 31
0.0
 70
    32
  1
<>
 71
     5
 42
23.39999999999986
 73
     0
 74
     0
 75
     0
210
-1.0
220
0.0
230
0.0
  3
Millimeter Large
100
AcDbAlignedDimension
 13
0.0
 23
-1083.4
 33
597.0
 14
0.0
 24
-1060.0
 34
597.0
100
AcDbRotatedDimension
1001
ACAD
1000
DSTYLE
1002
{
1070
    74
1070
     0
1070
   173
1070
     0
1070
   342
1005
A4
1070
   143
1040
0.0393700787401575
1070
    41
1040
2.0
1070
    79
1070
     1
1070
   141
1040
3.5
1070
   271
1070
     1
1070
    44
1040
1.0
1070
    42
1040
0.5
1070
   147
1040
1.0
1070
    40
1040
5.0
1070
    77
1070
     1
1070
    73
1070
     0
1070
   174
1070
     0
1070
   279
1070
     0
1070
   340
1005
A2
1070
   140
1040
3.5
1070
   284
1070
     1
1070
    78
1070
     1
1002
}
  0
DIMENSION
  5
2D7
330
1F
100
AcDbEntity
  8
Dimensioni
100
AcDbDimension
  2
*D17
 10
0.0
 20
-1160.0
 30
517.0
 11
1146.25
 21
557.0
 31
0.0
 70
    32
  1
<>
 71
     5
 42
80.0
 73
     0
 74
     0
 75
     0
210
-1.0
220
0.0
230
0.0
  3
Millimeter Large
100
AcDbAlignedDimension
 13
0.0
 23
-1082.6
 33
597.0
 14
0.0
 24
-1082.6
 34
517.0
 50
90.0
100
AcDbRotatedDimension
1001
ACAD
1000
DSTYLE
1002
{
1070
    74
1070
     0
1070
   173
1070
     0
1070
   342
1005
A4
1070
   143
1040
0.0393700787401575
1070
    41
1040
2.0
1070
    79
1070
     1
1070
   141
1040
3.5
1070
   271
1070
     1
1070
    44
1040
1.0
1070
    42
1040
0.5
1070
   147
1040
1.0
1070
    40
1040
5.0
1070
    77
1070
     1
1070
    73
1070
     0
1070
   174
1070
     0
1070
   279
1070
     0
1070
   340
1005
A2
1070
   140
1040
3.5
1070
   284
1070
     1
1070
    78
1070
     1
1002
}
  0
DIMENSION
  5
2E4
330
1F
100
AcDbEntity
  8
0
100
AcDbDimension
  2
*D18
 10
0.0
 20
-1230.0
 30
0.0
 11
1216.25
 21
298.5
 31
0.0
 70
    32
  1
<>
 71
     5
 42
597.0
 73
     0
 74
     0
 75
     0
210
-1.0
220
0.0
230
0.0
  3
Millimeter Large
100
AcDbAlignedDimension
 13
0.0
 23
-1083.4
 33
597.0
 14
0.0
 24
-1060.0
 34
0.0
 50
90.0
100
AcDbRotatedDimension
1001
ACAD
1000
DSTYLE
1002
{
1070
    74
1070
     0
1070
   173
1070
     0
1070
   342
1005
A4
1070
   143
1040
0.0393700787401575
1070
    41
1040
2.0
1070
    79
1070
     1
1070
   141
1040
3.5
1070
   271
1070
     1
1070
    44
1040
1.0
1070
    42
1040
0.5
1070
   147
1040
1.0
1070
    40
1040
5.0
1070
    77
1070
     1
1070
    73
1070
     0
1070
   174
1070
     0
1070
   279
1070
     0
1070
   340
1005
A2
1070
   140
1040
3.5
1070
   284
1070
     1
1070
    78
1070
     1
1002
}
  0
DIMENSION
  5
2F1
330
1F
100
AcDbEntity
  8
Dimensioni
100
AcDbDimension
  2
*D19
 10
0.0
 20
-1160.0
 30
457.0
 11
1146.25
 21
415.75
 31
0.0
 70
    32
  1
<>
 71
     5
 42
60.0
 73
     0
 74
     0
 75
     0
210
-1.0
220
0.0
230
0.0
  3
Millimeter Large
100
AcDbAlignedDimension
 13
0.0
 23
-1082.6
 33
517.0
 14
0.0
 24
-1082.6
 34
457.0
 50
90.0
100
AcDbRotatedDimension
1001
ACAD
1000
DSTYLE
1002
{
1070
    74
1070
     0
1070
   173
1070
     0
1070
   342
1005
A4
1070
   143
1040
0.0393700787401575
1070
    41
1040
2.0
1070
    79
1070
     1
1070
   141
1040
3.5
1070
   271
1070
     1
1070
    44
1040
1.0
1070
    42
1040
0.5
1070
   147
1040
1.0
1070
    40
1040
5.0
1070
    77
1070
     1
1070
    73
1070
     0
1070
   174
1070
     0
1070
   279
1070
     0
1070
   340
1005
A2
1070
   140
1040
3.5
1070
   284
1070
     1
1070
    78
1070
     1
1002
}
  0
DIMENSION
  5
2FF
330
1F
100
AcDbEntity
  8
Dimensioni
100
AcDbDimension
  2
*D20
 10
0.0
 20
-1160.0
 30
0.0
 11
1146.25
 21
228.5
 31
0.0
 70
    32
  1
<>
 71
     5
 42
457.0
 73
     0
 74
     0
 75
     0
210
-1.0
220
0.0
230
0.0
  3
Millimeter Large
100
AcDbAlignedDimension
 13
0.0
 23
-1082.6
 33
457.0
 14
0.0
 24
-1060.0
 34
0.0
 50
90.0
100
AcDbRotatedDimension
1001
ACAD
1000
DSTYLE
1002
{
1070
    74
1070
     0
1070
   173
1070
     0
1070
   342
1005
A4
1070
   143
1040
0.0393700787401575
1070
    41
1040
2.0
1070
    79
1070
     1
1070
   141
1040
3.5
1070
   271
1070
     1
1070
    44
1040
1.0
1070
    42
1040
0.5
1070
   147
1040
1.0
1070
    40
1040
5.0
1070
    77
1070
     1
1070
    73
1070
     0
1070
   174
1070
     0
1070
   279
1070
     0
1070
   340
1005
A2
1070
   140
1040
3.5
1070
   284
1070
     1
1070
    78
1070
     1
1002
}
  0
ENDSEC
  0
SECTION
  2
OBJECTS
  0
DICTIONARY
  5
C
330
0
100
AcDbDictionary
281
     1
  3
ACAD_DETAILVIEWSTYLE
350
347
  3
ACAD_GROUP
350
D
  3
ACAD_LAYOUT
350
1A
  3
ACAD_MATERIAL
350
43
  3
ACAD_MLEADERSTYLE
350
6B
  3
ACAD_MLINESTYLE
350
17
  3
ACAD_PLOTSETTINGS
350
19
  3
ACAD_PLOTSTYLENAME
350
E
  3
ACAD_SCALELIST
350
47
  3
ACAD_SECTIONVIEWSTYLE
350
348
  3
ACAD_TABLESTYLE
350
69
  3
ACAD_VISUALSTYLE
350
2A
  3
AcDbVariableDictionary
350
30C
  3
ACDB_RECOMPOSE_DATA
350
344
  0
SUN
  5
6D
330
29
100
AcDbSun
 90
        1
290
     0
 63
     7
421
 16777215
 40
1.0
291
     1
 91
  2455826
 92
 54000000
292
     0
 70
     2
 71
   256
280
     1
  0
DICTIONARY
  5
347
102
{ACAD_REACTORS
330
C
102
}
330
C
100
AcDbDictionary
281
     1
  0
DICTIONARY
  5
D
102
{ACAD_REACTORS
330
C
102
}
330
C
100
AcDbDictionary
281
     1
  0
DICTIONARY
  5
1A
102
{ACAD_REACTORS
330
C
102
}
330
C
100
AcDbDictionary
281
     1
  3
Layout1
350
1E
  3
Layout2
350
26
  3
Model
350
22
  0
DICTIONARY
  5
43
102
{ACAD_REACTORS
330
C
102
}
330
C
100
AcDbDictionary
281
     1
  3
ByBlock
350
45
  3
ByLayer
350
44
  3
Global
350
46
  0
DICTIONARY
  5
6B
102
{ACAD_REACTORS
330
C
102
}
330
C
100
AcDbDictionary
281
     1
  3
Standard
350
6C
  0
DICTIONARY
  5
17
102
{ACAD_REACTORS
330
C
102
}
330
C
100
AcDbDictionary
281
     1
  3
Standard
350
18
  0
DICTIONARY
  5
19
102
{ACAD_REACTORS
330
C
102
}
330
C
100
AcDbDictionary
281
     1
  0
ACDBDICTIONARYWDFLT
  5
E
102
{ACAD_REACTORS
330
C
102
}
330
C
100
AcDbDictionary
281
     1
  3
Normal
350
F
100
AcDbDictionaryWithDefault
340
F
  0
DICTIONARY
  5
47
102
{ACAD_REACTORS
330
C
102
}
330
C
100
AcDbDictionary
281
     1
  3
A0
350
48
  3
A1
350
49
  3
A2
350
4A
  3
A3
350
4B
  3
A4
350
4C
  3
A5
350
4D
  3
A6
350
4E
  3
A7
350
4F
  3
A8
350
50
  3
A9
350
51
  3
B0
350
52
  3
B1
350
53
  3
B2
350
54
  3
B3
350
55
  3
B4
350
56
  3
B5
350
57
  3
B6
350
58
  3
B7
350
59
  3
B8
350
5A
  3
B9
350
5B
  3
C0
350
5C
  3
C1
350
5D
  3
C2
350
5E
  3
C3
350
5F
  3
C4
350
60
  3
C5
350
61
  3
C6
350
62
  3
C7
350
63
  3
C8
350
64
  3
C9
350
65
  3
D0
350
66
  3
D1
350
67
  3
D2
350
68
  0
DICTIONARY
  5
348
102
{ACAD_REACTORS
330
C
102
}
330
C
100
AcDbDictionary
281
     1
  0
DICTIONARY
  5
69
102
{ACAD_REACTORS
330
C
102
}
330
C
100
AcDbDictionary
281
     1
  3
Standard
350
6A
  0
DICTIONARY
  5
2A
102
{ACAD_REACTORS
330
C
102
}
330
C
100
AcDbDictionary
281
     1
  3
2dWireframe
350
2F
  3
Basic
350
32
  3
Brighten
350
36
  3
ColorChange
350
3A
  3
Conceptual
350
34
  3
Dim
350
35
  3
EdgeColorOff
350
3D
  3
Facepattern
350
39
  3
Flat
350
2B
  3
FlatWithEdges
350
2C
  3
Gouraud
350
2D
  3
GouraudWithEdges
350
2E
  3
Hidden
350
31
  3
JitterOff
350
3B
  3
Linepattern
350
38
  3
OverhangOff
350
3C
  3
Realistic
350
33
  3
Shaded
350
42
  3
Shaded with edges
350
41
  3
Shades of Gray
350
3E
  3
Sketchy
350
3F
  3
Thicken
350
37
  3
Wireframe
350
30
  3
X-Ray
350
40
  0
DICTIONARY
  5
30C
102
{ACAD_REACTORS
330
C
102
}
330
C
100
AcDbDictionary
281
     1
  3
CANNOSCALE
350
30D
  3
CMLEADERSTYLE
350
346
  3
CTABLESTYLE
350
345
  3
XCLIPFRAME
350
30E
  0
XRECORD
  5
344
102
{ACAD_REACTORS
330
C
102
}
330
C
100
AcDbXrecord
280
     1
 90
        1
330
6A
  0
LAYOUT
  5
1E
102
{ACAD_REACTORS
330
1A
102
}
330
1A
100
AcDbPlotSettings
  1

  2
none_device
  4

  6

 40
0.0
 41
0.0
 42
0.0
 43
0.0
 44
0.0
 45
0.0
 46
0.0
 47
0.0
 48
0.0
 49
0.0
140
0.0
141
0.0
142
1.0
143
1.0
 70
   688
 72
     0
 73
     0
 74
     5
  7

 75
    16
 76
     0
 77
     2
 78
   300
147
1.0
148
0.0
149
0.0
100
AcDbLayout
  1
Layout1
 70
     1
 71
     1
 10
0.0
 20
0.0
 11
12.0
 21
9.0
 12
0.0
 22
0.0
 32
0.0
 14
1.000000000000000E+20
 24
1.000000000000000E+20
 34
1.000000000000000E+20
 15
-1.000000000000000E+20
 25
-1.000000000000000E+20
 35
-1.000000000000000E+20
146
0.0
 13
0.0
 23
0.0
 33
0.0
 16
1.0
 26
0.0
 36
0.0
 17
0.0
 27
1.0
 37
0.0
 76
     0
330
1B
  0
LAYOUT
  5
26
102
{ACAD_REACTORS
330
1A
102
}
330
1A
100
AcDbPlotSettings
  1

  2
none_device
  4

  6

 40
0.0
 41
0.0
 42
0.0
 43
0.0
 44
0.0
 45
0.0
 46
0.0
 47
0.0
 48
0.0
 49
0.0
140
0.0
141
0.0
142
1.0
143
1.0
 70
   688
 72
     0
 73
     0
 74
     5
  7

 75
    16
 76
     0
 77
     2
 78
   300
147
1.0
148
0.0
149
0.0
100
AcDbLayout
  1
Layout2
 70
     1
 71
     2
 10
0.0
 20
0.0
 11
0.0
 21
0.0
 12
0.0
 22
0.0
 32
0.0
 14
0.0
 24
0.0
 34
0.0
 15
0.0
 25
0.0
 35
0.0
146
0.0
 13
0.0
 23
0.0
 33
0.0
 16
1.0
 26
0.0
 36
0.0
 17
0.0
 27
1.0
 37
0.0
 76
     0
330
23
  0
LAYOUT
  5
22
102
{ACAD_REACTORS
330
1A
102
}
330
1A
100
AcDbPlotSettings
  1

  2
none_device
  4
Letter_(8.50_x_11.00_Inches)
  6

 40
6.35
 41
6.35
 42
6.35000508
 43
6.35000508
 44
215.9
 45
279.4
 46
0.0
 47
0.0
 48
0.0
 49
0.0
140
0.0
141
0.0
142
1.0
143
1.0
 70
  1712
 72
     0
 73
     0
 74
     0
  7

 75
     0
 76
     0
 77
     2
 78
   300
147
1.0
148
0.0
149
0.0
100
AcDbLayout
  1
Model
 70
     1
 71
     0
 10
0.0
 20
0.0
 11
12.0
 21
9.0
 12
0.0
 22
0.0
 32
0.0
 14
1.000000000000000E+20
 24
1.000000000000000E+20
 34
1.000000000000000E+20
 15
-1.000000000000000E+20
 25
-1.000000000000000E+20
 35
-1.000000000000000E+20
146
0.0
 13
0.0
 23
0.0
 33
0.0
 16
1.0
 26
0.0
 36
0.0
 17
0.0
 27
1.0
 37
0.0
 76
     0
330
1F
331
29
  0
MATERIAL
  5
45
102
{ACAD_REACTORS
330
43
102
}
330
43
100
AcDbMaterial
  1
ByBlock
 72
     1
 94
      127
  0
MATERIAL
  5
44
102
{ACAD_REACTORS
330
43
102
}
330
43
100
AcDbMaterial
  1
ByLayer
 72
     1
 94
      127
  0
MATERIAL
  5
46
102
{ACAD_REACTORS
330
43
102
}
330
43
100
AcDbMaterial
  1
Global
 72
     1
 94
      127
  0
MLEADERSTYLE
  5
6C
102
{ACAD_REACTORS
330
6B
102
}
102
{ACAD_XDICTIONARY
360
342
102
}
330
6B
100
AcDbMLeaderStyle
170
     2
171
     1
172
     0
 90
        2
 40
0.0
 41
0.0
173
     1
 91
-1056964608
340
14
 92
       -2
290
     1
 42
0.09
291
     1
 43
0.36
  3
Standard
341
0
 44
0.18
300

342
11
174
     1
178
     6
175
     1
176
     0
 93
-1056964608
 45
0.18
292
     0
297
     0
 46
0.18
343
0
 94
-1056964608
 47
1.0
 49
1.0
140
1.0
293
     1
141
0.0
294
     1
177
     0
142
1.0
295
     0
296
     0
143
0.125
1001
ACAD_MLEADERVER
1070
     2
  0
MLINESTYLE
  5
18
102
{ACAD_REACTORS
330
17
102
}
330
17
100
AcDbMlineStyle
  2
Standard
 70
     0
  3

 62
   256
 51
90.0
 52
90.0
 71
     2
 49
0.5
 62
   256
  6
BYLAYER
 49
-0.5
 62
   256
  6
BYLAYER
  0
ACDBPLACEHOLDER
  5
F
102
{ACAD_REACTORS
330
E
102
}
330
E
  0
SCALE
  5
48
102
{ACAD_REACTORS
330
47
102
}
330
47
100
AcDbScale
 70
     0
300
1:1
140
1.0
141
1.0
290
     1
  0
SCALE
  5
49
102
{ACAD_REACTORS
330
47
102
}
330
47
100
AcDbScale
 70
     0
300
1:2
140
1.0
141
2.0
290
     0
  0
SCALE
  5
4A
102
{ACAD_REACTORS
330
47
102
}
330
47
100
AcDbScale
 70
     0
300
1:4
140
1.0
141
4.0
290
     0
  0
SCALE
  5
4B
102
{ACAD_REACTORS
330
47
102
}
330
47
100
AcDbScale
 70
     0
300
1:5
140
1.0
141
5.0
290
     0
  0
SCALE
  5
4C
102
{ACAD_REACTORS
330
47
102
}
330
47
100
AcDbScale
 70
     0
300
1:8
140
1.0
141
8.0
290
     0
  0
SCALE
  5
4D
102
{ACAD_REACTORS
330
47
102
}
330
47
100
AcDbScale
 70
     0
300
1:10
140
1.0
141
10.0
290
     0
  0
SCALE
  5
4E
102
{ACAD_REACTORS
330
47
102
}
330
47
100
AcDbScale
 70
     0
300
1:16
140
1.0
141
16.0
290
     0
  0
SCALE
  5
4F
102
{ACAD_REACTORS
330
47
102
}
330
47
100
AcDbScale
 70
     0
300
1:20
140
1.0
141
20.0
290
     0
  0
SCALE
  5
50
102
{ACAD_REACTORS
330
47
102
}
330
47
100
AcDbScale
 70
     0
300
1:30
140
1.0
141
30.0
290
     0
  0
SCALE
  5
51
102
{ACAD_REACTORS
330
47
102
}
330
47
100
AcDbScale
 70
     0
300
1:40
140
1.0
141
40.0
290
     0
  0
SCALE
  5
52
102
{ACAD_REACTORS
330
47
102
}
330
47
100
AcDbScale
 70
     0
300
1:50
140
1.0
141
50.0
290
     0
  0
SCALE
  5
53
102
{ACAD_REACTORS
330
47
102
}
330
47
100
AcDbScale
 70
     0
300
1:100
140
1.0
141
100.0
290
     0
  0
SCALE
  5
54
102
{ACAD_REACTORS
330
47
102
}
330
47
100
AcDbScale
 70
     0
300
2:1
140
2.0
141
1.0
290
     0
  0
SCALE
  5
55
102
{ACAD_REACTORS
330
47
102
}
330
47
100
AcDbScale
 70
     0
300
4:1
140
4.0
141
1.0
290
     0
  0
SCALE
  5
56
102
{ACAD_REACTORS
330
47
102
}
330
47
100
AcDbScale
 70
     0
300
8:1
140
8.0
141
1.0
290
     0
  0
SCALE
  5
57
102
{ACAD_REACTORS
330
47
102
}
330
47
100
AcDbScale
 70
     0
300
10:1
140
10.0
141
1.0
290
     0
  0
SCALE
  5
58
102
{ACAD_REACTORS
330
47
102
}
330
47
100
AcDbScale
 70
     0
300
100:1
140
100.0
141
1.0
290
     0
  0
SCALE
  5
59
102
{ACAD_REACTORS
330
47
102
}
330
47
100
AcDbScale
 70
     0
300
1/128" = 1'-0"
140
0.0078125
141
12.0
290
     0
  0
SCALE
  5
5A
102
{ACAD_REACTORS
330
47
102
}
330
47
100
AcDbScale
 70
     0
300
1/64" = 1'-0"
140
0.015625
141
12.0
290
     0
  0
SCALE
  5
5B
102
{ACAD_REACTORS
330
47
102
}
330
47
100
AcDbScale
 70
     0
300
1/32" = 1'-0"
140
0.03125
141
12.0
290
     0
  0
SCALE
  5
5C
102
{ACAD_REACTORS
330
47
102
}
330
47
100
AcDbScale
 70
     0
300
1/16" = 1'-0"
140
0.0625
141
12.0
290
     0
  0
SCALE
  5
5D
102
{ACAD_REACTORS
330
47
102
}
330
47
100
AcDbScale
 70
     0
300
3/32" = 1'-0"
140
0.09375
141
12.0
290
     0
  0
SCALE
  5
5E
102
{ACAD_REACTORS
330
47
102
}
330
47
100
AcDbScale
 70
     0
300
1/8" = 1'-0"
140
0.125
141
12.0
290
     0
  0
SCALE
  5
5F
102
{ACAD_REACTORS
330
47
102
}
330
47
100
AcDbScale
 70
     0
300
3/16" = 1'-0"
140
0.1875
141
12.0
290
     0
  0
SCALE
  5
60
102
{ACAD_REACTORS
330
47
102
}
330
47
100
AcDbScale
 70
     0
300
1/4" = 1'-0"
140
0.25
141
12.0
290
     0
  0
SCALE
  5
61
102
{ACAD_REACTORS
330
47
102
}
330
47
100
AcDbScale
 70
     0
300
3/8" = 1'-0"
140
0.375
141
12.0
290
     0
  0
SCALE
  5
62
102
{ACAD_REACTORS
330
47
102
}
330
47
100
AcDbScale
 70
     0
300
1/2" = 1'-0"
140
0.5
141
12.0
290
     0
  0
SCALE
  5
63
102
{ACAD_REACTORS
330
47
102
}
330
47
100
AcDbScale
 70
     0
300
3/4" = 1'-0"
140
0.75
141
12.0
290
     0
  0
SCALE
  5
64
102
{ACAD_REACTORS
330
47
102
}
330
47
100
AcDbScale
 70
     0
300
1" = 1'-0"
140
1.0
141
12.0
290
     0
  0
SCALE
  5
65
102
{ACAD_REACTORS
330
47
102
}
330
47
100
AcDbScale
 70
     0
300
1-1/2" = 1'-0"
140
1.5
141
12.0
290
     0
  0
SCALE
  5
66
102
{ACAD_REACTORS
330
47
102
}
330
47
100
AcDbScale
 70
     0
300
3" = 1'-0"
140
3.0
141
12.0
290
     0
  0
SCALE
  5
67
102
{ACAD_REACTORS
330
47
102
}
330
47
100
AcDbScale
 70
     0
300
6" = 1'-0"
140
6.0
141
12.0
290
     0
  0
SCALE
  5
68
102
{ACAD_REACTORS
330
47
102
}
330
47
100
AcDbScale
 70
     0
300
1'-0" = 1'-0"
140
12.0
141
12.0
290
     0
  0
TABLESTYLE
  5
6A
102
{ACAD_REACTORS
330
69
102
}
102
{ACAD_XDICTIONARY
360
33F
102
}
330
69
100
AcDbTableStyle
  3
Standard
 70
     0
 71
     0
 40
0.06
 41
0.06
280
     0
281
     0
  7
Standard
140
0.18
170
     2
 62
     0
 63
   257
283
     0
 90
        4
 91
        0
  1

274
    -2
284
     1
 64
     0
275
    -2
285
     1
 65
     0
276
    -2
286
     1
 66
     0
277
    -2
287
     1
 67
     0
278
    -2
288
     1
 68
     0
279
    -2
289
     1
 69
     0
  7
Standard
140
0.25
170
     5
 62
     0
 63
   257
283
     0
 90
        4
 91
        0
  1

274
    -2
284
     1
 64
     0
275
    -2
285
     1
 65
     0
276
    -2
286
     1
 66
     0
277
    -2
287
     1
 67
     0
278
    -2
288
     1
 68
     0
279
    -2
289
     1
 69
     0
  7
Standard
140
0.18
170
     5
 62
     0
 63
   257
283
     0
 90
        4
 91
        0
  1

274
    -2
284
     1
 64
     0
275
    -2
285
     1
 65
     0
276
    -2
286
     1
 66
     0
277
    -2
287
     1
 67
     0
278
    -2
288
     1
 68
     0
279
    -2
289
     1
 69
     0
  0
VISUALSTYLE
  5
2F
102
{ACAD_REACTORS
330
2A
102
}
102
{ACAD_XDICTIONARY
360
317
102
}
330
2A
100
AcDbVisualStyle
  2
2dWireframe
 70
     4
 71
     0
 72
     2
 73
     0
 90
        0
 40
0.6
 41
30.0
 62
     5
 63
     7
421
 16777215
 74
     1
 91
        4
 64
     7
 65
   257
 75
     1
175
     1
 42
1.0
 92
        0
 66
   257
 43
1.0
 76
     1
 77
     6
 78
     2
 67
     7
 79
     5
170
     0
171
     0
290
     0
174
     0
 93
        1
 44
0.0
173
     0
291
     0
 45
0.0
  0
VISUALSTYLE
  5
32
102
{ACAD_REACTORS
330
2A
102
}
102
{ACAD_XDICTIONARY
360
31D
102
}
330
2A
100
AcDbVisualStyle
  2
Basic
 70
     7
 71
     1
 72
     0
 73
     1
 90
        0
 40
0.6
 41
30.0
 62
     5
 63
     7
421
 16777215
 74
     0
 91
        4
 64
     7
 65
   257
 75
     1
175
     1
 42
1.0
 92
        8
 66
     7
 43
1.0
 76
     1
 77
     6
 78
     2
 67
     7
 79
     5
170
     0
171
     0
290
     0
174
     0
 93
        1
 44
0.0
173
     0
291
     1
 45
0.0
  0
VISUALSTYLE
  5
36
102
{ACAD_REACTORS
330
2A
102
}
102
{ACAD_XDICTIONARY
360
325
102
}
330
2A
100
AcDbVisualStyle
  2
Brighten
 70
    12
 71
     2
 72
     2
 73
     0
 90
        0
 40
0.6
 41
30.0
 62
     5
 63
     7
421
 16777215
 74
     1
 91
        4
 64
     7
 65
   257
 75
     1
175
     1
 42
1.0
 92
        8
 66
     7
 43
1.0
 76
     1
 77
     6
 78
     2
 67
     7
 79
     5
170
     0
171
     0
290
     0
174
     0
 93
        1
 44
50.0
173
     0
291
     1
 45
0.0
  0
VISUALSTYLE
  5
3A
102
{ACAD_REACTORS
330
2A
102
}
102
{ACAD_XDICTIONARY
360
32D
102
}
330
2A
100
AcDbVisualStyle
  2
ColorChange
 70
    16
 71
     2
 72
     2
 73
     3
 90
        0
 40
0.6
 41
30.0
 62
     5
 63
     8
421
  8421504
 74
     1
 91
        4
 64
     7
 65
   257
 75
     1
175
     1
 42
1.0
 92
        8
 66
     8
424
  8421504
 43
1.0
 76
     1
 77
     6
 78
     2
 67
     7
 79
     5
170
     0
171
     0
290
     0
174
     0
 93
        1
 44
0.0
173
     0
291
     1
 45
0.0
  0
VISUALSTYLE
  5
34
102
{ACAD_REACTORS
330
2A
102
}
102
{ACAD_XDICTIONARY
360
321
102
}
330
2A
100
AcDbVisualStyle
  2
Conceptual
 70
     9
 71
     3
 72
     2
 73
     0
 90
        0
 40
0.6
 41
30.0
 62
     5
 63
     7
421
 16777215
 74
     2
 91
        2
 64
     7
 65
   257
 75
     1
175
     1
 42
179.0
 92
        8
 66
     7
 43
1.0
 76
     1
 77
     6
 78
     2
 67
     7
 79
     3
170
     0
171
     0
290
     0
174
     0
 93
        1
 44
0.0
173
     0
291
     0
 45
0.0
  0
VISUALSTYLE
  5
35
102
{ACAD_REACTORS
330
2A
102
}
102
{ACAD_XDICTIONARY
360
323
102
}
330
2A
100
AcDbVisualStyle
  2
Dim
 70
    11
 71
     2
 72
     2
 73
     0
 90
        0
 40
0.6
 41
30.0
 62
     5
 63
     7
421
 16777215
 74
     1
 91
        4
 64
     7
 65
   257
 75
     1
175
     1
 42
1.0
 92
        8
 66
     7
 43
1.0
 76
     1
 77
     6
 78
     2
 67
     7
 79
     5
170
     0
171
     0
290
     0
174
     0
 93
        1
 44
-50.0
173
     0
291
     1
 45
0.0
  0
VISUALSTYLE
  5
3D
102
{ACAD_REACTORS
330
2A
102
}
102
{ACAD_XDICTIONARY
360
333
102
}
330
2A
100
AcDbVisualStyle
  2
EdgeColorOff
 70
    22
 71
     2
 72
     2
 73
     0
 90
        0
 40
0.6
 41
30.0
 62
     5
 63
     7
421
 16777215
 74
     1
 91
        4
 64
     7
 65
   257
 75
     1
175
     1
 42
1.0
 92
        8
 66
     7
 43
1.0
 76
     1
 77
     6
 78
     2
 67
     7
 79
     5
170
     0
171
     0
290
     0
174
     0
 93
        1
 44
0.0
173
     0
291
     1
 45
0.0
  0
VISUALSTYLE
  5
39
102
{ACAD_REACTORS
330
2A
102
}
102
{ACAD_XDICTIONARY
360
32B
102
}
330
2A
100
AcDbVisualStyle
  2
Facepattern
 70
    15
 71
     2
 72
     2
 73
     0
 90
        0
 40
0.6
 41
30.0
 62
     5
 63
     7
421
 16777215
 74
     1
 91
        4
 64
     7
 65
   257
 75
     1
175
     1
 42
1.0
 92
        8
 66
     7
 43
1.0
 76
     1
 77
     6
 78
     2
 67
     7
 79
     5
170
     0
171
     0
290
     0
174
     0
 93
        1
 44
0.0
173
     0
291
     1
 45
0.0
  0
VISUALSTYLE
  5
2B
102
{ACAD_REACTORS
330
2A
102
}
102
{ACAD_XDICTIONARY
360
30F
102
}
330
2A
100
AcDbVisualStyle
  2
Flat
 70
     0
 71
     2
 72
     1
 73
     1
 90
        2
 40
0.6
 41
30.0
 62
     5
 63
     7
421
 16777215
 74
     0
 91
        0
 64
     7
 65
   257
 75
     1
175
     1
 42
1.0
 92
        8
 66
     7
 43
1.0
 76
     1
 77
     6
 78
     2
 67
     7
 79
     5
170
     0
171
     0
290
     0
174
     0
 93
       13
 44
0.0
173
     0
291
     1
 45
0.0
  0
VISUALSTYLE
  5
2C
102
{ACAD_REACTORS
330
2A
102
}
102
{ACAD_XDICTIONARY
360
311
102
}
330
2A
100
AcDbVisualStyle
  2
FlatWithEdges
 70
     1
 71
     2
 72
     1
 73
     1
 90
        2
 40
0.6
 41
30.0
 62
     5
 63
     7
421
 16777215
 74
     1
 91
        0
 64
     7
 65
   257
 75
     1
175
     1
 42
1.0
 92
        0
 66
   257
 43
1.0
 76
     1
 77
     6
 78
     2
 67
     7
 79
     5
170
     0
171
     0
290
     0
174
     0
 93
       13
 44
0.0
173
     0
291
     1
 45
0.0
  0
VISUALSTYLE
  5
2D
102
{ACAD_REACTORS
330
2A
102
}
102
{ACAD_XDICTIONARY
360
313
102
}
330
2A
100
AcDbVisualStyle
  2
Gouraud
 70
     2
 71
     2
 72
     2
 73
     1
 90
        2
 40
0.6
 41
30.0
 62
     5
 63
     7
421
 16777215
 74
     0
 91
        0
 64
     7
 65
   257
 75
     1
175
     1
 42
1.0
 92
        0
 66
     7
 43
1.0
 76
     1
 77
     6
 78
     2
 67
     7
 79
     5
170
     0
171
     0
290
     0
174
     0
 93
       13
 44
0.0
173
     0
291
     1
 45
0.0
  0
VISUALSTYLE
  5
2E
102
{ACAD_REACTORS
330
2A
102
}
102
{ACAD_XDICTIONARY
360
315
102
}
330
2A
100
AcDbVisualStyle
  2
GouraudWithEdges
 70
     3
 71
     2
 72
     2
 73
     1
 90
        2
 40
0.6
 41
30.0
 62
     5
 63
     7
421
 16777215
 74
     1
 91
        0
 64
     7
 65
   257
 75
     1
175
     1
 42
1.0
 92
        0
 66
   257
 43
1.0
 76
     1
 77
     6
 78
     2
 67
     7
 79
     5
170
     0
171
     0
290
     0
174
     0
 93
       13
 44
0.0
173
     0
291
     1
 45
0.0
  0
VISUALSTYLE
  5
31
102
{ACAD_REACTORS
330
2A
102
}
102
{ACAD_XDICTIONARY
360
31B
102
}
330
2A
100
AcDbVisualStyle
  2
Hidden
 70
     6
 71
     1
 72
     2
 73
     2
 90
        0
 40
0.6
 41
30.0
 62
     5
 63
     7
421
 16777215
 74
     2
 91
        2
 64
     7
 65
   257
 75
     2
175
     1
 42
40.0
 92
        0
 66
   257
 43
1.0
 76
     1
 77
     6
 78
     2
 67
     7
 79
     3
170
     0
171
     0
290
     0
174
     0
 93
        1
 44
0.0
173
     0
291
     0
 45
0.0
  0
VISUALSTYLE
  5
3B
102
{ACAD_REACTORS
330
2A
102
}
102
{ACAD_XDICTIONARY
360
32F
102
}
330
2A
100
AcDbVisualStyle
  2
JitterOff
 70
    20
 71
     2
 72
     2
 73
     0
 90
        0
 40
0.6
 41
30.0
 62
     5
 63
     7
421
 16777215
 74
     1
 91
        4
 64
     7
 65
   257
 75
     1
175
     1
 42
1.0
 92
       10
 66
     7
 43
1.0
 76
     1
 77
     6
 78
     2
 67
     7
 79
     5
170
     0
171
     0
290
     0
174
     0
 93
        1
 44
0.0
173
     0
291
     1
 45
0.0
  0
VISUALSTYLE
  5
38
102
{ACAD_REACTORS
330
2A
102
}
102
{ACAD_XDICTIONARY
360
329
102
}
330
2A
100
AcDbVisualStyle
  2
Linepattern
 70
    14
 71
     2
 72
     2
 73
     0
 90
        0
 40
0.6
 41
30.0
 62
     5
 63
     7
421
 16777215
 74
     1
 91
        4
 64
     7
 65
   257
 75
     7
175
     7
 42
1.0
 92
        8
 66
     7
 43
1.0
 76
     1
 77
     6
 78
     2
 67
     7
 79
     5
170
     0
171
     0
290
     0
174
     0
 93
        1
 44
0.0
173
     0
291
     1
 45
0.0
  0
VISUALSTYLE
  5
3C
102
{ACAD_REACTORS
330
2A
102
}
102
{ACAD_XDICTIONARY
360
331
102
}
330
2A
100
AcDbVisualStyle
  2
OverhangOff
 70
    21
 71
     2
 72
     2
 73
     0
 90
        0
 40
0.6
 41
30.0
 62
     5
 63
     7
421
 16777215
 74
     1
 91
        4
 64
     7
 65
   257
 75
     1
175
     1
 42
1.0
 92
        9
 66
     7
 43
1.0
 76
     1
 77
     6
 78
     2
 67
     7
 79
     5
170
     0
171
     0
290
     0
174
     0
 93
        1
 44
0.0
173
     0
291
     1
 45
0.0
  0
VISUALSTYLE
  5
33
102
{ACAD_REACTORS
330
2A
102
}
102
{ACAD_XDICTIONARY
360
31F
102
}
330
2A
100
AcDbVisualStyle
  2
Realistic
 70
     8
 71
     2
 72
     3
 73
     0
 90
        2
 40
0.6
 41
30.0
 62
     5
 63
     7
421
 16777215
 74
     0
 91
        0
 64
     7
 65
   257
 75
     1
175
     1
 42
1.0
 92
        8
 66
   257
 43
1.0
 76
     1
 77
     6
 78
     2
 67
     7
 79
     3
170
     0
171
     0
290
     0
174
     0
 93
       13
 44
0.0
173
     0
291
     0
 45
0.0
  0
VISUALSTYLE
  5
42
102
{ACAD_REACTORS
330
2A
102
}
102
{ACAD_XDICTIONARY
360
33D
102
}
330
2A
100
AcDbVisualStyle
  2
Shaded
 70
    27
 71
     2
 72
     2
 73
     1
 90
        2
 40
0.6
 41
30.0
 62
     5
 63
     7
421
 16777215
 74
     0
 91
        4
 64
     7
 65
   257
 75
     1
175
     1
 42
1.0
 92
        8
 66
   257
 43
1.0
 76
     1
 77
     6
 78
     2
 67
     8
425
  7895160
 79
     3
170
     0
171
     0
290
     0
174
     0
 93
        5
 44
0.0
173
     0
291
     0
 45
0.0
  0
VISUALSTYLE
  5
41
102
{ACAD_REACTORS
330
2A
102
}
102
{ACAD_XDICTIONARY
360
33B
102
}
330
2A
100
AcDbVisualStyle
  2
Shaded with edges
 70
    26
 71
     2
 72
     2
 73
     1
 90
        2
 40
0.6
 41
30.0
 62
     5
 63
     7
421
 16777215
 74
     1
 91
       10
 64
     7
 65
   257
 75
     2
175
     1
 42
1.0
 92
        8
 66
   257
 43
1.0
 76
     1
 77
     6
 78
     2
 67
     7
 79
     3
170
     0
171
     0
290
     0
174
     0
 93
        5
 44
0.0
173
     0
291
     0
 45
0.0
  0
VISUALSTYLE
  5
3E
102
{ACAD_REACTORS
330
2A
102
}
102
{ACAD_XDICTIONARY
360
335
102
}
330
2A
100
AcDbVisualStyle
  2
Shades of Gray
 70
    23
 71
     2
 72
     2
 73
     3
 90
        0
 40
0.6
 41
30.0
 62
     5
 63
     7
421
 16777215
 74
     2
 91
        2
 64
     7
 65
     7
 75
     1
175
     1
 42
40.0
 92
        8
 66
     7
 43
1.0
 76
     1
 77
     6
 78
     2
 67
     7
 79
     3
170
     0
171
     0
290
     0
174
     0
 93
        1
 44
0.0
173
     0
291
     0
 45
0.0
  0
VISUALSTYLE
  5
3F
102
{ACAD_REACTORS
330
2A
102
}
102
{ACAD_XDICTIONARY
360
337
102
}
330
2A
100
AcDbVisualStyle
  2
Sketchy
 70
    24
 71
     1
 72
     2
 73
     2
 90
        0
 40
0.6
 41
30.0
 62
     5
 63
     7
421
 16777215
 74
     2
 91
        2
 64
     7
 65
     7
 75
     1
175
     1
 42
40.0
 92
       11
 66
     7
 43
1.0
 76
     1
 77
     6
 78
     2
 67
     7
 79
     6
170
     0
171
     0
290
     0
174
     0
 93
        1
 44
0.0
173
     0
291
     0
 45
0.0
  0
VISUALSTYLE
  5
37
102
{ACAD_REACTORS
330
2A
102
}
102
{ACAD_XDICTIONARY
360
327
102
}
330
2A
100
AcDbVisualStyle
  2
Thicken
 70
    13
 71
     2
 72
     2
 73
     0
 90
        0
 40
0.6
 41
30.0
 62
     5
 63
     7
421
 16777215
 74
     1
 91
        4
 64
     7
 65
   257
 75
     1
175
     1
 42
1.0
 92
       12
 66
     7
 43
1.0
 76
     1
 77
     6
 78
     2
 67
     7
 79
     5
170
     0
171
     0
290
     0
174
     0
 93
        1
 44
0.0
173
     0
291
     1
 45
0.0
  0
VISUALSTYLE
  5
30
102
{ACAD_REACTORS
330
2A
102
}
102
{ACAD_XDICTIONARY
360
319
102
}
330
2A
100
AcDbVisualStyle
  2
Wireframe
 70
     5
 71
     0
 72
     2
 73
     0
 90
        0
 40
0.6
 41
30.0
 62
     5
 63
     7
421
 16777215
 74
     1
 91
        4
 64
     7
 65
   257
 75
     1
175
     1
 42
1.0
 92
        0
 66
   257
 43
1.0
 76
     1
 77
     6
 78
     2
 67
     7
 79
     3
170
     0
171
     0
290
     0
174
     0
 93
        1
 44
0.0
173
     0
291
     0
 45
0.0
  0
VISUALSTYLE
  5
40
102
{ACAD_REACTORS
330
2A
102
}
102
{ACAD_XDICTIONARY
360
339
102
}
330
2A
100
AcDbVisualStyle
  2
X-Ray
 70
    25
 71
     2
 72
     2
 73
     1
 90
        1
 40
0.5
 41
30.0
 62
     5
 63
     7
421
 16777215
 74
     1
 91
        0
 64
     7
 65
   257
 75
     1
175
     1
 42
1.0
 92
        8
 66
     7
 43
1.0
 76
     1
 77
     6
 78
     2
 67
     7
 79
     3
170
     0
171
     0
290
     0
174
     0
 93
       13
 44
0.0
173
     0
291
     0
 45
0.0
  0
DICTIONARYVAR
  5
30D
102
{ACAD_REACTORS
330
30C
102
}
330
30C
100
DictionaryVariables
280
     0
  1
1:1
  0
DICTIONARYVAR
  5
346
102
{ACAD_REACTORS
330
30C
102
}
330
30C
100
DictionaryVariables
280
     0
  1
Standard
  0
DICTIONARYVAR
  5
345
102
{ACAD_REACTORS
330
30C
102
}
330
30C
100
DictionaryVariables
280
     0
  1
Standard
  0
DICTIONARYVAR
  5
30E
102
{ACAD_REACTORS
330
30C
102
}
330
30C
100
DictionaryVariables
280
     0
  1
2
  0
DICTIONARY
  5
342
330
6C
100
AcDbDictionary
280
     1
281
     1
  3
ACAD_XREC_ROUNDTRIP
360
343
  0
DICTIONARY
  5
33F
330
6A
100
AcDbDictionary
280
     1
281
     1
  3
ACAD_ROUNDTRIP_2008_TABLESTYLE_CELLSTYLEMAP
360
340
  0
DICTIONARY
  5
317
330
2F
100
AcDbDictionary
280
     1
281
     1
  3
ACAD_XREC_ROUNDTRIP
360
318
  0
DICTIONARY
  5
31D
330
32
100
AcDbDictionary
280
     1
281
     1
  3
ACAD_XREC_ROUNDTRIP
360
31E
  0
DICTIONARY
  5
325
330
36
100
AcDbDictionary
280
     1
281
     1
  3
ACAD_XREC_ROUNDTRIP
360
326
  0
DICTIONARY
  5
32D
330
3A
100
AcDbDictionary
280
     1
281
     1
  3
ACAD_XREC_ROUNDTRIP
360
32E
  0
DICTIONARY
  5
321
330
34
100
AcDbDictionary
280
     1
281
     1
  3
ACAD_XREC_ROUNDTRIP
360
322
  0
DICTIONARY
  5
323
330
35
100
AcDbDictionary
280
     1
281
     1
  3
ACAD_XREC_ROUNDTRIP
360
324
  0
DICTIONARY
  5
333
330
3D
100
AcDbDictionary
280
     1
281
     1
  3
ACAD_XREC_ROUNDTRIP
360
334
  0
DICTIONARY
  5
32B
330
39
100
AcDbDictionary
280
     1
281
     1
  3
ACAD_XREC_ROUNDTRIP
360
32C
  0
DICTIONARY
  5
30F
330
2B
100
AcDbDictionary
280
     1
281
     1
  3
ACAD_XREC_ROUNDTRIP
360
310
  0
DICTIONARY
  5
311
330
2C
100
AcDbDictionary
280
     1
281
     1
  3
ACAD_XREC_ROUNDTRIP
360
312
  0
DICTIONARY
  5
313
330
2D
100
AcDbDictionary
280
     1
281
     1
  3
ACAD_XREC_ROUNDTRIP
360
314
  0
DICTIONARY
  5
315
330
2E
100
AcDbDictionary
280
     1
281
     1
  3
ACAD_XREC_ROUNDTRIP
360
316
  0
DICTIONARY
  5
31B
330
31
100
AcDbDictionary
280
     1
281
     1
  3
ACAD_XREC_ROUNDTRIP
360
31C
  0
DICTIONARY
  5
32F
330
3B
100
AcDbDictionary
280
     1
281
     1
  3
ACAD_XREC_ROUNDTRIP
360
330
  0
DICTIONARY
  5
329
330
38
100
AcDbDictionary
280
     1
281
     1
  3
ACAD_XREC_ROUNDTRIP
360
32A
  0
DICTIONARY
  5
331
330
3C
100
AcDbDictionary
280
     1
281
     1
  3
ACAD_XREC_ROUNDTRIP
360
332
  0
DICTIONARY
  5
31F
330
33
100
AcDbDictionary
280
     1
281
     1
  3
ACAD_XREC_ROUNDTRIP
360
320
  0
DICTIONARY
  5
33D
330
42
100
AcDbDictionary
280
     1
281
     1
  3
ACAD_XREC_ROUNDTRIP
360
33E
  0
DICTIONARY
  5
33B
330
41
100
AcDbDictionary
280
     1
281
     1
  3
ACAD_XREC_ROUNDTRIP
360
33C
  0
DICTIONARY
  5
335
330
3E
100
AcDbDictionary
280
     1
281
     1
  3
ACAD_XREC_ROUNDTRIP
360
336
  0
DICTIONARY
  5
337
330
3F
100
AcDbDictionary
280
     1
281
     1
  3
ACAD_XREC_ROUNDTRIP
360
338
  0
DICTIONARY
  5
327
330
37
100
AcDbDictionary
280
     1
281
     1
  3
ACAD_XREC_ROUNDTRIP
360
328
  0
DICTIONARY
  5
319
330
30
100
AcDbDictionary
280
     1
281
     1
  3
ACAD_XREC_ROUNDTRIP
360
31A
  0
DICTIONARY
  5
339
330
40
100
AcDbDictionary
280
     1
281
     1
  3
ACAD_XREC_ROUNDTRIP
360
33A
  0
XRECORD
  5
343
102
{ACAD_REACTORS
330
342
102
}
330
342
100
AcDbXrecord
280
     1
102
ACAD_ROUNDTRIP_2010_MLEADER_STYLE
  0
CELLSTYLEMAP
  5
340
102
{ACAD_REACTORS
330
33F
102
}
330
33F
100
AcDbCellStyleMap
 90
        3
300
CELLSTYLE
  1
TABLEFORMAT_BEGIN
 90
        5
170
     1
 91
        0
 92
    32768
 62
   257
 93
        1
300
CONTENTFORMAT
  1
CONTENTFORMAT_BEGIN
 90
        0
 91
        0
 92
        4
 93
        0
300

 40
0.0
140
1.0
 94
        5
 62
     0
340
11
144
0.25
309
CONTENTFORMAT_END
171
     1
301
MARGIN
  1
CELLMARGIN_BEGIN
 40
0.06
 40
0.06
 40
0.06
 40
0.06
 40
0.06
 40
0.06
309
CELLMARGIN_END
 94
        6
 95
        1
302
GRIDFORMAT
  1
GRIDFORMAT_BEGIN
 90
        0
 91
        1
 62
     0
 92
       -2
340
14
 93
        0
 40
0.045
309
GRIDFORMAT_END
 95
        2
302
GRIDFORMAT
  1
GRIDFORMAT_BEGIN
 90
        0
 91
        1
 62
     0
 92
       -2
340
14
 93
        0
 40
0.045
309
GRIDFORMAT_END
 95
        4
302
GRIDFORMAT
  1
GRIDFORMAT_BEGIN
 90
        0
 91
        1
 62
     0
 92
       -2
340
14
 93
        0
 40
0.045
309
GRIDFORMAT_END
 95
        8
302
GRIDFORMAT
  1
GRIDFORMAT_BEGIN
 90
        0
 91
        1
 62
     0
 92
       -2
340
14
 93
        0
 40
0.045
309
GRIDFORMAT_END
 95
       16
302
GRIDFORMAT
  1
GRIDFORMAT_BEGIN
 90
        0
 91
        1
 62
     0
 92
       -2
340
14
 93
        0
 40
0.045
309
GRIDFORMAT_END
 95
       32
302
GRIDFORMAT
  1
GRIDFORMAT_BEGIN
 90
        0
 91
        1
 62
     0
 92
       -2
340
14
 93
        0
 40
0.045
309
GRIDFORMAT_END
309
TABLEFORMAT_END
  1
CELLSTYLE_BEGIN
 90
        1
 91
        1
300
_TITLE
309
CELLSTYLE_END
300
CELLSTYLE
  1
TABLEFORMAT_BEGIN
 90
        5
170
     1
 91
        0
 92
        0
 62
   257
 93
        1
300
CONTENTFORMAT
  1
CONTENTFORMAT_BEGIN
 90
        0
 91
        0
 92
        4
 93
        0
300

 40
0.0
140
1.0
 94
        5
 62
     0
340
11
144
0.18
309
CONTENTFORMAT_END
171
     1
301
MARGIN
  1
CELLMARGIN_BEGIN
 40
0.06
 40
0.06
 40
0.06
 40
0.06
 40
0.06
 40
0.06
309
CELLMARGIN_END
 94
        6
 95
        1
302
GRIDFORMAT
  1
GRIDFORMAT_BEGIN
 90
        0
 91
        1
 62
     0
 92
       -2
340
14
 93
        0
 40
0.045
309
GRIDFORMAT_END
 95
        2
302
GRIDFORMAT
  1
GRIDFORMAT_BEGIN
 90
        0
 91
        1
 62
     0
 92
       -2
340
14
 93
        0
 40
0.045
309
GRIDFORMAT_END
 95
        4
302
GRIDFORMAT
  1
GRIDFORMAT_BEGIN
 90
        0
 91
        1
 62
     0
 92
       -2
340
14
 93
        0
 40
0.045
309
GRIDFORMAT_END
 95
        8
302
GRIDFORMAT
  1
GRIDFORMAT_BEGIN
 90
        0
 91
        1
 62
     0
 92
       -2
340
14
 93
        0
 40
0.045
309
GRIDFORMAT_END
 95
       16
302
GRIDFORMAT
  1
GRIDFORMAT_BEGIN
 90
        0
 91
        1
 62
     0
 92
       -2
340
14
 93
        0
 40
0.045
309
GRIDFORMAT_END
 95
       32
302
GRIDFORMAT
  1
GRIDFORMAT_BEGIN
 90
        0
 91
        1
 62
     0
 92
       -2
340
14
 93
        0
 40
0.045
309
GRIDFORMAT_END
309
TABLEFORMAT_END
  1
CELLSTYLE_BEGIN
 90
        2
 91
        1
300
_HEADER
309
CELLSTYLE_END
300
CELLSTYLE
  1
TABLEFORMAT_BEGIN
 90
        5
170
     1
 91
        0
 92
        0
 62
   257
 93
        1
300
CONTENTFORMAT
  1
CONTENTFORMAT_BEGIN
 90
        0
 91
        0
 92
        4
 93
        0
300

 40
0.0
140
1.0
 94
        2
 62
     0
340
11
144
0.18
309
CONTENTFORMAT_END
171
     1
301
MARGIN
  1
CELLMARGIN_BEGIN
 40
0.06
 40
0.06
 40
0.06
 40
0.06
 40
0.06
 40
0.06
309
CELLMARGIN_END
 94
        6
 95
        1
302
GRIDFORMAT
  1
GRIDFORMAT_BEGIN
 90
        0
 91
        1
 62
     0
 92
       -2
340
14
 93
        0
 40
0.045
309
GRIDFORMAT_END
 95
        2
302
GRIDFORMAT
  1
GRIDFORMAT_BEGIN
 90
        0
 91
        1
 62
     0
 92
       -2
340
14
 93
        0
 40
0.045
309
GRIDFORMAT_END
 95
        4
302
GRIDFORMAT
  1
GRIDFORMAT_BEGIN
 90
        0
 91
        1
 62
     0
 92
       -2
340
14
 93
        0
 40
0.045
309
GRIDFORMAT_END
 95
        8
302
GRIDFORMAT
  1
GRIDFORMAT_BEGIN
 90
        0
 91
        1
 62
     0
 92
       -2
340
14
 93
        0
 40
0.045
309
GRIDFORMAT_END
 95
       16
302
GRIDFORMAT
  1
GRIDFORMAT_BEGIN
 90
        0
 91
        1
 62
     0
 92
       -2
340
14
 93
        0
 40
0.045
309
GRIDFORMAT_END
 95
       32
302
GRIDFORMAT
  1
GRIDFORMAT_BEGIN
 90
        0
 91
        1
 62
     0
 92
       -2
340
14
 93
        0
 40
0.045
309
GRIDFORMAT_END
309
TABLEFORMAT_END
  1
CELLSTYLE_BEGIN
 90
        3
 91
        2
300
_DATA
309
CELLSTYLE_END
  0
XRECORD
  5
318
102
{ACAD_REACTORS
330
317
102
}
330
317
100
AcDbXrecord
280
     1
102
RTVSPropertyOp0
 70
     1
102
RTVSPropertyOp1
 70
     1
102
RTVSPropertyOp2
 70
     1
102
RTVSPropertyOp3
 70
     1
102
RTVSPropertyOp4
 70
     1
102
RTVSPropertyOp5
 70
     1
102
RTVSPropertyOp6
 70
     1
102
RTVSPropertyOp7
 70
     1
102
RTVSPropertyOp8
 70
     1
102
RTVSPropertyOp9
 70
     1
102
RTVSPropertyOp10
 70
     1
102
RTVSPropertyOp11
 70
     1
102
RTVSPropertyOp12
 70
     1
102
RTVSPropertyOp13
 70
     1
102
RTVSPropertyOp14
 70
     1
102
RTVSPropertyOp15
 70
     1
102
RTVSPropertyOp16
 70
     1
102
RTVSPropertyOp17
 70
     1
102
RTVSPropertyOp18
 70
     1
102
RTVSPropertyOp19
 70
     1
102
RTVSPropertyOp20
 70
     1
102
RTVSPropertyOp21
 70
     1
102
RTVSPropertyOp22
 70
     1
102
RTVSPropertyOp23
 70
     1
102
RTVSPropertyOp24
 70
     1
102
RTVSPropertyOp25
 70
     1
102
RTVSPropertyOp26
 70
     1
102
RTVSPropertyOp27
 70
     1
102
RTVSPropertyOp28
 70
     1
102
RTVSPropertyOp29
 70
     1
102
RTVSPropertyOp30
 70
     1
102
RTVSPropertyOp31
 70
     1
102
RTVSPropertyOp32
 70
     1
102
RTVSPropertyOp33
 70
     1
102
RTVSPropertyOp34
 70
     1
102
RTVSPropertyOp35
 70
     1
102
RTVSPropertyOp36
 70
     1
102
RTVSPropertyOp37
 70
     1
102
RTVSPropertyOp38
 70
     1
102
RTVSPropertyOp39
 70
     1
102
RTVSPropertyOp40
 70
     1
102
RTVSPropertyOp41
 70
     1
102
RTVSPropertyOp42
 70
     1
102
RTVSPropertyOp43
 70
     1
102
RTVSPropertyOp44
 70
     1
102
RTVSPropertyOp45
 70
     1
102
RTVSPropertyOp46
 70
     1
102
RTVSPropertyOp47
 70
     1
102
RTVSPropertyOp48
 70
     1
102
RTVSPropertyOp49
 70
     1
102
RTVSPropertyOp50
 70
     1
102
RTVSPropertyOp51
 70
     0
102
RTVSPropertyOp52
 70
     0
102
RTVSPropertyOp53
 70
     1
102
RTVSPropertyOp54
 70
     1
102
RTVSPropertyOp55
 70
     1
102
RTVSPropertyOp56
 70
     1
102
RTVSPropertyOp57
 70
     1
102
RTVSPost2010Prop28
280
     1
102
RTVSPost2010PropOp28
 70
     1
102
RTVSPost2010Prop29
280
     1
102
RTVSPost2010PropOp29
 70
     1
102
RTVSPost2010Prop30
280
     0
102
RTVSPost2010PropOp30
 70
     1
102
RTVSPost2010Prop31
280
     0
102
RTVSPost2010PropOp31
 70
     1
102
RTVSPost2010Prop32
280
     0
102
RTVSPost2010PropOp32
 70
     1
102
RTVSPost2010Prop33
280
     0
102
RTVSPost2010PropOp33
 70
     1
102
RTVSPost2010Prop34
280
     0
102
RTVSPost2010PropOp34
 70
     1
102
RTVSPost2010Prop35
280
     0
102
RTVSPost2010PropOp35
 70
     1
102
RTVSPost2010Prop36
280
     0
102
RTVSPost2010PropOp36
 70
     1
102
RTVSPost2010Prop37
 90
       50
102
RTVSPost2010PropOp37
 70
     1
102
RTVSPost2010Prop38
140
0.0
102
RTVSPost2010PropOp38
 70
     1
102
RTVSPost2010Prop39
140
1.0
102
RTVSPost2010PropOp39
 70
     1
102
RTVSPost2010Prop40
 90
        0
102
RTVSPost2010PropOp40
 70
     1
102
RTVSPost2010Prop41ColorIndex
 90
      178
102
RTVSPost2010Prop41ColorRGB
 90
        0
102
RTVSPost2010PropOp41
 70
     1
102
RTVSPost2010Prop42
 90
       50
102
RTVSPost2010PropOp42
 70
     1
102
RTVSPost2010Prop43
 90
        3
102
RTVSPost2010PropOp43
 70
     1
102
RTVSPost2010Prop44ColorIndex
 90
        5
102
RTVSPost2010Prop44ColorRGB
 90
      255
102
RTVSPost2010PropOp44
 70
     1
102
RTVSPost2010Prop45
280
     0
102
RTVSPost2010PropOp45
 70
     1
102
RTVSPost2010Prop46
 90
       50
102
RTVSPost2010PropOp46
 70
     1
102
RTVSPost2010Prop47
 90
       50
102
RTVSPost2010PropOp47
 70
     1
102
RTVSPost2010Prop48
 90
       50
102
RTVSPost2010PropOp48
 70
     1
102
RTVSPost2010Prop49
280
     0
102
RTVSPost2010PropOp49
 70
     1
102
RTVSPost2010Prop50
 90
       50
102
RTVSPost2010PropOp50
 70
     1
102
RTVSPost2010Prop51ColorIndex
 90
      256
102
RTVSPost2010Prop51ColorRGB
 90
-16777216
102
RTVSPost2010PropOp51
 70
     0
102
RTVSPost2010Prop52
140
1.0
102
RTVSPost2010PropOp52
 70
     0
102
RTVSPost2010Prop53
 90
        2
102
RTVSPost2010PropOp53
 70
     1
102
RTVSPost2010Prop54
  1
strokes_ogs.tif
102
RTVSPost2010PropOp54
 70
     1
102
RTVSPost2010Prop55
280
     0
102
RTVSPost2010PropOp55
 70
     1
102
RTVSPost2010Prop56
140
1.0
102
RTVSPost2010PropOp56
 70
     1
102
RTVSPost2010Prop57
140
1.0
102
RTVSPost2010PropOp57
 70
     1
  0
XRECORD
  5
31E
102
{ACAD_REACTORS
330
31D
102
}
330
31D
100
AcDbXrecord
280
     1
102
RTVSPropertyOp0
 70
     1
102
RTVSPropertyOp1
 70
     1
102
RTVSPropertyOp2
 70
     1
102
RTVSPropertyOp3
 70
     1
102
RTVSPropertyOp4
 70
     1
102
RTVSPropertyOp5
 70
     1
102
RTVSPropertyOp6
 70
     1
102
RTVSPropertyOp7
 70
     1
102
RTVSPropertyOp8
 70
     1
102
RTVSPropertyOp9
 70
     1
102
RTVSPropertyOp10
 70
     1
102
RTVSPropertyOp11
 70
     1
102
RTVSPropertyOp12
 70
     1
102
RTVSPropertyOp13
 70
     1
102
RTVSPropertyOp14
 70
     1
102
RTVSPropertyOp15
 70
     1
102
RTVSPropertyOp16
 70
     1
102
RTVSPropertyOp17
 70
     1
102
RTVSPropertyOp18
 70
     1
102
RTVSPropertyOp19
 70
     1
102
RTVSPropertyOp20
 70
     1
102
RTVSPropertyOp21
 70
     1
102
RTVSPropertyOp22
 70
     1
102
RTVSPropertyOp23
 70
     1
102
RTVSPropertyOp24
 70
     1
102
RTVSPropertyOp25
 70
     1
102
RTVSPropertyOp26
 70
     1
102
RTVSPropertyOp27
 70
     1
102
RTVSPropertyOp28
 70
     1
102
RTVSPropertyOp29
 70
     1
102
RTVSPropertyOp30
 70
     1
102
RTVSPropertyOp31
 70
     1
102
RTVSPropertyOp32
 70
     1
102
RTVSPropertyOp33
 70
     1
102
RTVSPropertyOp34
 70
     1
102
RTVSPropertyOp35
 70
     1
102
RTVSPropertyOp36
 70
     1
102
RTVSPropertyOp37
 70
     1
102
RTVSPropertyOp38
 70
     1
102
RTVSPropertyOp39
 70
     1
102
RTVSPropertyOp40
 70
     1
102
RTVSPropertyOp41
 70
     1
102
RTVSPropertyOp42
 70
     1
102
RTVSPropertyOp43
 70
     1
102
RTVSPropertyOp44
 70
     1
102
RTVSPropertyOp45
 70
     1
102
RTVSPropertyOp46
 70
     1
102
RTVSPropertyOp47
 70
     1
102
RTVSPropertyOp48
 70
     1
102
RTVSPropertyOp49
 70
     1
102
RTVSPropertyOp50
 70
     1
102
RTVSPropertyOp51
 70
     0
102
RTVSPropertyOp52
 70
     0
102
RTVSPropertyOp53
 70
     1
102
RTVSPropertyOp54
 70
     1
102
RTVSPropertyOp55
 70
     1
102
RTVSPropertyOp56
 70
     1
102
RTVSPropertyOp57
 70
     1
102
RTVSPost2010Prop28
280
     0
102
RTVSPost2010PropOp28
 70
     1
102
RTVSPost2010Prop29
280
     1
102
RTVSPost2010PropOp29
 70
     1
102
RTVSPost2010Prop30
280
     1
102
RTVSPost2010PropOp30
 70
     1
102
RTVSPost2010Prop31
280
     0
102
RTVSPost2010PropOp31
 70
     1
102
RTVSPost2010Prop32
280
     0
102
RTVSPost2010PropOp32
 70
     1
102
RTVSPost2010Prop33
280
     0
102
RTVSPost2010PropOp33
 70
     1
102
RTVSPost2010Prop34
280
     0
102
RTVSPost2010PropOp34
 70
     1
102
RTVSPost2010Prop35
280
     0
102
RTVSPost2010PropOp35
 70
     1
102
RTVSPost2010Prop36
280
     0
102
RTVSPost2010PropOp36
 70
     1
102
RTVSPost2010Prop37
 90
       50
102
RTVSPost2010PropOp37
 70
     1
102
RTVSPost2010Prop38
140
0.0
102
RTVSPost2010PropOp38
 70
     1
102
RTVSPost2010Prop39
140
1.0
102
RTVSPost2010PropOp39
 70
     1
102
RTVSPost2010Prop40
 90
        0
102
RTVSPost2010PropOp40
 70
     1
102
RTVSPost2010Prop41ColorIndex
 90
      178
102
RTVSPost2010Prop41ColorRGB
 90
        0
102
RTVSPost2010PropOp41
 70
     1
102
RTVSPost2010Prop42
 90
       50
102
RTVSPost2010PropOp42
 70
     1
102
RTVSPost2010Prop43
 90
        3
102
RTVSPost2010PropOp43
 70
     1
102
RTVSPost2010Prop44ColorIndex
 90
        5
102
RTVSPost2010Prop44ColorRGB
 90
      255
102
RTVSPost2010PropOp44
 70
     1
102
RTVSPost2010Prop45
280
     0
102
RTVSPost2010PropOp45
 70
     1
102
RTVSPost2010Prop46
 90
       50
102
RTVSPost2010PropOp46
 70
     1
102
RTVSPost2010Prop47
 90
       50
102
RTVSPost2010PropOp47
 70
     1
102
RTVSPost2010Prop48
 90
       50
102
RTVSPost2010PropOp48
 70
     1
102
RTVSPost2010Prop49
280
     0
102
RTVSPost2010PropOp49
 70
     1
102
RTVSPost2010Prop50
 90
       50
102
RTVSPost2010PropOp50
 70
     1
102
RTVSPost2010Prop51ColorIndex
 90
      256
102
RTVSPost2010Prop51ColorRGB
 90
-16777216
102
RTVSPost2010PropOp51
 70
     0
102
RTVSPost2010Prop52
140
1.0
102
RTVSPost2010PropOp52
 70
     0
102
RTVSPost2010Prop53
 90
        2
102
RTVSPost2010PropOp53
 70
     1
102
RTVSPost2010Prop54
  1
strokes_ogs.tif
102
RTVSPost2010PropOp54
 70
     1
102
RTVSPost2010Prop55
280
     0
102
RTVSPost2010PropOp55
 70
     1
102
RTVSPost2010Prop56
140
1.0
102
RTVSPost2010PropOp56
 70
     1
102
RTVSPost2010Prop57
140
1.0
102
RTVSPost2010PropOp57
 70
     1
  0
XRECORD
  5
326
102
{ACAD_REACTORS
330
325
102
}
330
325
100
AcDbXrecord
280
     1
102
RTVSPropertyOp0
 70
     1
102
RTVSPropertyOp1
 70
     1
102
RTVSPropertyOp2
 70
     1
102
RTVSPropertyOp3
 70
     1
102
RTVSPropertyOp4
 70
     1
102
RTVSPropertyOp5
 70
     1
102
RTVSPropertyOp6
 70
     1
102
RTVSPropertyOp7
 70
     1
102
RTVSPropertyOp8
 70
     1
102
RTVSPropertyOp9
 70
     1
102
RTVSPropertyOp10
 70
     1
102
RTVSPropertyOp11
 70
     1
102
RTVSPropertyOp12
 70
     1
102
RTVSPropertyOp13
 70
     1
102
RTVSPropertyOp14
 70
     1
102
RTVSPropertyOp15
 70
     1
102
RTVSPropertyOp16
 70
     1
102
RTVSPropertyOp17
 70
     1
102
RTVSPropertyOp18
 70
     1
102
RTVSPropertyOp19
 70
     1
102
RTVSPropertyOp20
 70
     1
102
RTVSPropertyOp21
 70
     1
102
RTVSPropertyOp22
 70
     1
102
RTVSPropertyOp23
 70
     1
102
RTVSPropertyOp24
 70
     1
102
RTVSPropertyOp25
 70
     1
102
RTVSPropertyOp26
 70
     1
102
RTVSPropertyOp27
 70
     1
102
RTVSPropertyOp28
 70
     1
102
RTVSPropertyOp29
 70
     1
102
RTVSPropertyOp30
 70
     1
102
RTVSPropertyOp31
 70
     1
102
RTVSPropertyOp32
 70
     1
102
RTVSPropertyOp33
 70
     1
102
RTVSPropertyOp34
 70
     1
102
RTVSPropertyOp35
 70
     1
102
RTVSPropertyOp36
 70
     1
102
RTVSPropertyOp37
 70
     1
102
RTVSPropertyOp38
 70
     1
102
RTVSPropertyOp39
 70
     1
102
RTVSPropertyOp40
 70
     1
102
RTVSPropertyOp41
 70
     1
102
RTVSPropertyOp42
 70
     1
102
RTVSPropertyOp43
 70
     1
102
RTVSPropertyOp44
 70
     1
102
RTVSPropertyOp45
 70
     1
102
RTVSPropertyOp46
 70
     1
102
RTVSPropertyOp47
 70
     1
102
RTVSPropertyOp48
 70
     1
102
RTVSPropertyOp49
 70
     1
102
RTVSPropertyOp50
 70
     1
102
RTVSPropertyOp51
 70
     0
102
RTVSPropertyOp52
 70
     0
102
RTVSPropertyOp53
 70
     1
102
RTVSPropertyOp54
 70
     1
102
RTVSPropertyOp55
 70
     1
102
RTVSPropertyOp56
 70
     1
102
RTVSPropertyOp57
 70
     1
102
RTVSPost2010Prop28
280
     0
102
RTVSPost2010PropOp28
 70
     1
102
RTVSPost2010Prop29
280
     1
102
RTVSPost2010PropOp29
 70
     1
102
RTVSPost2010Prop30
280
     1
102
RTVSPost2010PropOp30
 70
     1
102
RTVSPost2010Prop31
280
     0
102
RTVSPost2010PropOp31
 70
     1
102
RTVSPost2010Prop32
280
     0
102
RTVSPost2010PropOp32
 70
     1
102
RTVSPost2010Prop33
280
     0
102
RTVSPost2010PropOp33
 70
     1
102
RTVSPost2010Prop34
280
     0
102
RTVSPost2010PropOp34
 70
     1
102
RTVSPost2010Prop35
280
     0
102
RTVSPost2010PropOp35
 70
     1
102
RTVSPost2010Prop36
280
     0
102
RTVSPost2010PropOp36
 70
     1
102
RTVSPost2010Prop37
 90
       50
102
RTVSPost2010PropOp37
 70
     1
102
RTVSPost2010Prop38
140
0.0
102
RTVSPost2010PropOp38
 70
     1
102
RTVSPost2010Prop39
140
1.0
102
RTVSPost2010PropOp39
 70
     1
102
RTVSPost2010Prop40
 90
        0
102
RTVSPost2010PropOp40
 70
     1
102
RTVSPost2010Prop41ColorIndex
 90
      178
102
RTVSPost2010Prop41ColorRGB
 90
        0
102
RTVSPost2010PropOp41
 70
     1
102
RTVSPost2010Prop42
 90
       50
102
RTVSPost2010PropOp42
 70
     1
102
RTVSPost2010Prop43
 90
        3
102
RTVSPost2010PropOp43
 70
     1
102
RTVSPost2010Prop44ColorIndex
 90
        5
102
RTVSPost2010Prop44ColorRGB
 90
      255
102
RTVSPost2010PropOp44
 70
     1
102
RTVSPost2010Prop45
280
     0
102
RTVSPost2010PropOp45
 70
     1
102
RTVSPost2010Prop46
 90
       50
102
RTVSPost2010PropOp46
 70
     1
102
RTVSPost2010Prop47
 90
       50
102
RTVSPost2010PropOp47
 70
     1
102
RTVSPost2010Prop48
 90
       50
102
RTVSPost2010PropOp48
 70
     1
102
RTVSPost2010Prop49
280
     0
102
RTVSPost2010PropOp49
 70
     1
102
RTVSPost2010Prop50
 90
       50
102
RTVSPost2010PropOp50
 70
     1
102
RTVSPost2010Prop51ColorIndex
 90
      256
102
RTVSPost2010Prop51ColorRGB
 90
-16777216
102
RTVSPost2010PropOp51
 70
     0
102
RTVSPost2010Prop52
140
1.0
102
RTVSPost2010PropOp52
 70
     0
102
RTVSPost2010Prop53
 90
        2
102
RTVSPost2010PropOp53
 70
     1
102
RTVSPost2010Prop54
  1
strokes_ogs.tif
102
RTVSPost2010PropOp54
 70
     1
102
RTVSPost2010Prop55
280
     0
102
RTVSPost2010PropOp55
 70
     1
102
RTVSPost2010Prop56
140
1.0
102
RTVSPost2010PropOp56
 70
     1
102
RTVSPost2010Prop57
140
1.0
102
RTVSPost2010PropOp57
 70
     1
  0
XRECORD
  5
32E
102
{ACAD_REACTORS
330
32D
102
}
330
32D
100
AcDbXrecord
280
     1
102
RTVSPropertyOp0
 70
     1
102
RTVSPropertyOp1
 70
     1
102
RTVSPropertyOp2
 70
     1
102
RTVSPropertyOp3
 70
     1
102
RTVSPropertyOp4
 70
     1
102
RTVSPropertyOp5
 70
     1
102
RTVSPropertyOp6
 70
     1
102
RTVSPropertyOp7
 70
     1
102
RTVSPropertyOp8
 70
     1
102
RTVSPropertyOp9
 70
     1
102
RTVSPropertyOp10
 70
     1
102
RTVSPropertyOp11
 70
     1
102
RTVSPropertyOp12
 70
     1
102
RTVSPropertyOp13
 70
     1
102
RTVSPropertyOp14
 70
     1
102
RTVSPropertyOp15
 70
     1
102
RTVSPropertyOp16
 70
     1
102
RTVSPropertyOp17
 70
     1
102
RTVSPropertyOp18
 70
     1
102
RTVSPropertyOp19
 70
     1
102
RTVSPropertyOp20
 70
     1
102
RTVSPropertyOp21
 70
     1
102
RTVSPropertyOp22
 70
     1
102
RTVSPropertyOp23
 70
     1
102
RTVSPropertyOp24
 70
     1
102
RTVSPropertyOp25
 70
     1
102
RTVSPropertyOp26
 70
     1
102
RTVSPropertyOp27
 70
     1
102
RTVSPropertyOp28
 70
     1
102
RTVSPropertyOp29
 70
     1
102
RTVSPropertyOp30
 70
     1
102
RTVSPropertyOp31
 70
     1
102
RTVSPropertyOp32
 70
     1
102
RTVSPropertyOp33
 70
     1
102
RTVSPropertyOp34
 70
     1
102
RTVSPropertyOp35
 70
     1
102
RTVSPropertyOp36
 70
     1
102
RTVSPropertyOp37
 70
     1
102
RTVSPropertyOp38
 70
     1
102
RTVSPropertyOp39
 70
     1
102
RTVSPropertyOp40
 70
     1
102
RTVSPropertyOp41
 70
     1
102
RTVSPropertyOp42
 70
     1
102
RTVSPropertyOp43
 70
     1
102
RTVSPropertyOp44
 70
     1
102
RTVSPropertyOp45
 70
     1
102
RTVSPropertyOp46
 70
     1
102
RTVSPropertyOp47
 70
     1
102
RTVSPropertyOp48
 70
     1
102
RTVSPropertyOp49
 70
     1
102
RTVSPropertyOp50
 70
     1
102
RTVSPropertyOp51
 70
     0
102
RTVSPropertyOp52
 70
     0
102
RTVSPropertyOp53
 70
     1
102
RTVSPropertyOp54
 70
     1
102
RTVSPropertyOp55
 70
     1
102
RTVSPropertyOp56
 70
     1
102
RTVSPropertyOp57
 70
     1
102
RTVSPost2010Prop28
280
     0
102
RTVSPost2010PropOp28
 70
     1
102
RTVSPost2010Prop29
280
     1
102
RTVSPost2010PropOp29
 70
     1
102
RTVSPost2010Prop30
280
     1
102
RTVSPost2010PropOp30
 70
     1
102
RTVSPost2010Prop31
280
     0
102
RTVSPost2010PropOp31
 70
     1
102
RTVSPost2010Prop32
280
     0
102
RTVSPost2010PropOp32
 70
     1
102
RTVSPost2010Prop33
280
     0
102
RTVSPost2010PropOp33
 70
     1
102
RTVSPost2010Prop34
280
     0
102
RTVSPost2010PropOp34
 70
     1
102
RTVSPost2010Prop35
280
     0
102
RTVSPost2010PropOp35
 70
     1
102
RTVSPost2010Prop36
280
     0
102
RTVSPost2010PropOp36
 70
     1
102
RTVSPost2010Prop37
 90
       50
102
RTVSPost2010PropOp37
 70
     1
102
RTVSPost2010Prop38
140
0.0
102
RTVSPost2010PropOp38
 70
     1
102
RTVSPost2010Prop39
140
1.0
102
RTVSPost2010PropOp39
 70
     1
102
RTVSPost2010Prop40
 90
        0
102
RTVSPost2010PropOp40
 70
     1
102
RTVSPost2010Prop41ColorIndex
 90
      178
102
RTVSPost2010Prop41ColorRGB
 90
        0
102
RTVSPost2010PropOp41
 70
     1
102
RTVSPost2010Prop42
 90
       50
102
RTVSPost2010PropOp42
 70
     1
102
RTVSPost2010Prop43
 90
        3
102
RTVSPost2010PropOp43
 70
     1
102
RTVSPost2010Prop44ColorIndex
 90
        5
102
RTVSPost2010Prop44ColorRGB
 90
      255
102
RTVSPost2010PropOp44
 70
     1
102
RTVSPost2010Prop45
280
     0
102
RTVSPost2010PropOp45
 70
     1
102
RTVSPost2010Prop46
 90
       50
102
RTVSPost2010PropOp46
 70
     1
102
RTVSPost2010Prop47
 90
       50
102
RTVSPost2010PropOp47
 70
     1
102
RTVSPost2010Prop48
 90
       50
102
RTVSPost2010PropOp48
 70
     1
102
RTVSPost2010Prop49
280
     0
102
RTVSPost2010PropOp49
 70
     1
102
RTVSPost2010Prop50
 90
       50
102
RTVSPost2010PropOp50
 70
     1
102
RTVSPost2010Prop51ColorIndex
 90
      256
102
RTVSPost2010Prop51ColorRGB
 90
-16777216
102
RTVSPost2010PropOp51
 70
     0
102
RTVSPost2010Prop52
140
1.0
102
RTVSPost2010PropOp52
 70
     0
102
RTVSPost2010Prop53
 90
        2
102
RTVSPost2010PropOp53
 70
     1
102
RTVSPost2010Prop54
  1
strokes_ogs.tif
102
RTVSPost2010PropOp54
 70
     1
102
RTVSPost2010Prop55
280
     0
102
RTVSPost2010PropOp55
 70
     1
102
RTVSPost2010Prop56
140
1.0
102
RTVSPost2010PropOp56
 70
     1
102
RTVSPost2010Prop57
140
1.0
102
RTVSPost2010PropOp57
 70
     1
  0
XRECORD
  5
322
102
{ACAD_REACTORS
330
321
102
}
330
321
100
AcDbXrecord
280
     1
102
RTVSPropertyOp0
 70
     1
102
RTVSPropertyOp1
 70
     1
102
RTVSPropertyOp2
 70
     1
102
RTVSPropertyOp3
 70
     1
102
RTVSPropertyOp4
 70
     1
102
RTVSPropertyOp5
 70
     1
102
RTVSPropertyOp6
 70
     1
102
RTVSPropertyOp7
 70
     1
102
RTVSPropertyOp8
 70
     1
102
RTVSPropertyOp9
 70
     1
102
RTVSPropertyOp10
 70
     1
102
RTVSPropertyOp11
 70
     1
102
RTVSPropertyOp12
 70
     1
102
RTVSPropertyOp13
 70
     1
102
RTVSPropertyOp14
 70
     1
102
RTVSPropertyOp15
 70
     1
102
RTVSPropertyOp16
 70
     1
102
RTVSPropertyOp17
 70
     1
102
RTVSPropertyOp18
 70
     1
102
RTVSPropertyOp19
 70
     1
102
RTVSPropertyOp20
 70
     1
102
RTVSPropertyOp21
 70
     1
102
RTVSPropertyOp22
 70
     1
102
RTVSPropertyOp23
 70
     1
102
RTVSPropertyOp24
 70
     1
102
RTVSPropertyOp25
 70
     1
102
RTVSPropertyOp26
 70
     1
102
RTVSPropertyOp27
 70
     1
102
RTVSPropertyOp28
 70
     1
102
RTVSPropertyOp29
 70
     1
102
RTVSPropertyOp30
 70
     1
102
RTVSPropertyOp31
 70
     1
102
RTVSPropertyOp32
 70
     1
102
RTVSPropertyOp33
 70
     1
102
RTVSPropertyOp34
 70
     1
102
RTVSPropertyOp35
 70
     1
102
RTVSPropertyOp36
 70
     1
102
RTVSPropertyOp37
 70
     1
102
RTVSPropertyOp38
 70
     1
102
RTVSPropertyOp39
 70
     1
102
RTVSPropertyOp40
 70
     1
102
RTVSPropertyOp41
 70
     1
102
RTVSPropertyOp42
 70
     1
102
RTVSPropertyOp43
 70
     1
102
RTVSPropertyOp44
 70
     1
102
RTVSPropertyOp45
 70
     1
102
RTVSPropertyOp46
 70
     1
102
RTVSPropertyOp47
 70
     1
102
RTVSPropertyOp48
 70
     1
102
RTVSPropertyOp49
 70
     1
102
RTVSPropertyOp50
 70
     1
102
RTVSPropertyOp51
 70
     0
102
RTVSPropertyOp52
 70
     0
102
RTVSPropertyOp53
 70
     1
102
RTVSPropertyOp54
 70
     1
102
RTVSPropertyOp55
 70
     1
102
RTVSPropertyOp56
 70
     1
102
RTVSPropertyOp57
 70
     1
102
RTVSPost2010Prop28
280
     0
102
RTVSPost2010PropOp28
 70
     1
102
RTVSPost2010Prop29
280
     1
102
RTVSPost2010PropOp29
 70
     1
102
RTVSPost2010Prop30
280
     1
102
RTVSPost2010PropOp30
 70
     1
102
RTVSPost2010Prop31
280
     0
102
RTVSPost2010PropOp31
 70
     1
102
RTVSPost2010Prop32
280
     0
102
RTVSPost2010PropOp32
 70
     1
102
RTVSPost2010Prop33
280
     0
102
RTVSPost2010PropOp33
 70
     1
102
RTVSPost2010Prop34
280
     0
102
RTVSPost2010PropOp34
 70
     1
102
RTVSPost2010Prop35
280
     0
102
RTVSPost2010PropOp35
 70
     1
102
RTVSPost2010Prop36
280
     0
102
RTVSPost2010PropOp36
 70
     1
102
RTVSPost2010Prop37
 90
       50
102
RTVSPost2010PropOp37
 70
     1
102
RTVSPost2010Prop38
140
0.0
102
RTVSPost2010PropOp38
 70
     1
102
RTVSPost2010Prop39
140
1.0
102
RTVSPost2010PropOp39
 70
     1
102
RTVSPost2010Prop40
 90
        0
102
RTVSPost2010PropOp40
 70
     1
102
RTVSPost2010Prop41ColorIndex
 90
      178
102
RTVSPost2010Prop41ColorRGB
 90
        0
102
RTVSPost2010PropOp41
 70
     1
102
RTVSPost2010Prop42
 90
       50
102
RTVSPost2010PropOp42
 70
     1
102
RTVSPost2010Prop43
 90
        3
102
RTVSPost2010PropOp43
 70
     1
102
RTVSPost2010Prop44ColorIndex
 90
        5
102
RTVSPost2010Prop44ColorRGB
 90
      255
102
RTVSPost2010PropOp44
 70
     1
102
RTVSPost2010Prop45
280
     0
102
RTVSPost2010PropOp45
 70
     1
102
RTVSPost2010Prop46
 90
       50
102
RTVSPost2010PropOp46
 70
     1
102
RTVSPost2010Prop47
 90
       50
102
RTVSPost2010PropOp47
 70
     1
102
RTVSPost2010Prop48
 90
       50
102
RTVSPost2010PropOp48
 70
     1
102
RTVSPost2010Prop49
280
     0
102
RTVSPost2010PropOp49
 70
     1
102
RTVSPost2010Prop50
 90
       50
102
RTVSPost2010PropOp50
 70
     1
102
RTVSPost2010Prop51ColorIndex
 90
      256
102
RTVSPost2010Prop51ColorRGB
 90
-16777216
102
RTVSPost2010PropOp51
 70
     0
102
RTVSPost2010Prop52
140
1.0
102
RTVSPost2010PropOp52
 70
     0
102
RTVSPost2010Prop53
 90
        2
102
RTVSPost2010PropOp53
 70
     1
102
RTVSPost2010Prop54
  1
strokes_ogs.tif
102
RTVSPost2010PropOp54
 70
     1
102
RTVSPost2010Prop55
280
     0
102
RTVSPost2010PropOp55
 70
     1
102
RTVSPost2010Prop56
140
1.0
102
RTVSPost2010PropOp56
 70
     1
102
RTVSPost2010Prop57
140
1.0
102
RTVSPost2010PropOp57
 70
     1
  0
XRECORD
  5
324
102
{ACAD_REACTORS
330
323
102
}
330
323
100
AcDbXrecord
280
     1
102
RTVSPropertyOp0
 70
     1
102
RTVSPropertyOp1
 70
     1
102
RTVSPropertyOp2
 70
     1
102
RTVSPropertyOp3
 70
     1
102
RTVSPropertyOp4
 70
     1
102
RTVSPropertyOp5
 70
     1
102
RTVSPropertyOp6
 70
     1
102
RTVSPropertyOp7
 70
     1
102
RTVSPropertyOp8
 70
     1
102
RTVSPropertyOp9
 70
     1
102
RTVSPropertyOp10
 70
     1
102
RTVSPropertyOp11
 70
     1
102
RTVSPropertyOp12
 70
     1
102
RTVSPropertyOp13
 70
     1
102
RTVSPropertyOp14
 70
     1
102
RTVSPropertyOp15
 70
     1
102
RTVSPropertyOp16
 70
     1
102
RTVSPropertyOp17
 70
     1
102
RTVSPropertyOp18
 70
     1
102
RTVSPropertyOp19
 70
     1
102
RTVSPropertyOp20
 70
     1
102
RTVSPropertyOp21
 70
     1
102
RTVSPropertyOp22
 70
     1
102
RTVSPropertyOp23
 70
     1
102
RTVSPropertyOp24
 70
     1
102
RTVSPropertyOp25
 70
     1
102
RTVSPropertyOp26
 70
     1
102
RTVSPropertyOp27
 70
     1
102
RTVSPropertyOp28
 70
     1
102
RTVSPropertyOp29
 70
     1
102
RTVSPropertyOp30
 70
     1
102
RTVSPropertyOp31
 70
     1
102
RTVSPropertyOp32
 70
     1
102
RTVSPropertyOp33
 70
     1
102
RTVSPropertyOp34
 70
     1
102
RTVSPropertyOp35
 70
     1
102
RTVSPropertyOp36
 70
     1
102
RTVSPropertyOp37
 70
     1
102
RTVSPropertyOp38
 70
     1
102
RTVSPropertyOp39
 70
     1
102
RTVSPropertyOp40
 70
     1
102
RTVSPropertyOp41
 70
     1
102
RTVSPropertyOp42
 70
     1
102
RTVSPropertyOp43
 70
     1
102
RTVSPropertyOp44
 70
     1
102
RTVSPropertyOp45
 70
     1
102
RTVSPropertyOp46
 70
     1
102
RTVSPropertyOp47
 70
     1
102
RTVSPropertyOp48
 70
     1
102
RTVSPropertyOp49
 70
     1
102
RTVSPropertyOp50
 70
     1
102
RTVSPropertyOp51
 70
     0
102
RTVSPropertyOp52
 70
     0
102
RTVSPropertyOp53
 70
     1
102
RTVSPropertyOp54
 70
     1
102
RTVSPropertyOp55
 70
     1
102
RTVSPropertyOp56
 70
     1
102
RTVSPropertyOp57
 70
     1
102
RTVSPost2010Prop28
280
     0
102
RTVSPost2010PropOp28
 70
     1
102
RTVSPost2010Prop29
280
     1
102
RTVSPost2010PropOp29
 70
     1
102
RTVSPost2010Prop30
280
     1
102
RTVSPost2010PropOp30
 70
     1
102
RTVSPost2010Prop31
280
     0
102
RTVSPost2010PropOp31
 70
     1
102
RTVSPost2010Prop32
280
     0
102
RTVSPost2010PropOp32
 70
     1
102
RTVSPost2010Prop33
280
     0
102
RTVSPost2010PropOp33
 70
     1
102
RTVSPost2010Prop34
280
     0
102
RTVSPost2010PropOp34
 70
     1
102
RTVSPost2010Prop35
280
     0
102
RTVSPost2010PropOp35
 70
     1
102
RTVSPost2010Prop36
280
     0
102
RTVSPost2010PropOp36
 70
     1
102
RTVSPost2010Prop37
 90
       50
102
RTVSPost2010PropOp37
 70
     1
102
RTVSPost2010Prop38
140
0.0
102
RTVSPost2010PropOp38
 70
     1
102
RTVSPost2010Prop39
140
1.0
102
RTVSPost2010PropOp39
 70
     1
102
RTVSPost2010Prop40
 90
        0
102
RTVSPost2010PropOp40
 70
     1
102
RTVSPost2010Prop41ColorIndex
 90
      178
102
RTVSPost2010Prop41ColorRGB
 90
        0
102
RTVSPost2010PropOp41
 70
     1
102
RTVSPost2010Prop42
 90
       50
102
RTVSPost2010PropOp42
 70
     1
102
RTVSPost2010Prop43
 90
        3
102
RTVSPost2010PropOp43
 70
     1
102
RTVSPost2010Prop44ColorIndex
 90
        5
102
RTVSPost2010Prop44ColorRGB
 90
      255
102
RTVSPost2010PropOp44
 70
     1
102
RTVSPost2010Prop45
280
     0
102
RTVSPost2010PropOp45
 70
     1
102
RTVSPost2010Prop46
 90
       50
102
RTVSPost2010PropOp46
 70
     1
102
RTVSPost2010Prop47
 90
       50
102
RTVSPost2010PropOp47
 70
     1
102
RTVSPost2010Prop48
 90
       50
102
RTVSPost2010PropOp48
 70
     1
102
RTVSPost2010Prop49
280
     0
102
RTVSPost2010PropOp49
 70
     1
102
RTVSPost2010Prop50
 90
       50
102
RTVSPost2010PropOp50
 70
     1
102
RTVSPost2010Prop51ColorIndex
 90
      256
102
RTVSPost2010Prop51ColorRGB
 90
-16777216
102
RTVSPost2010PropOp51
 70
     0
102
RTVSPost2010Prop52
140
1.0
102
RTVSPost2010PropOp52
 70
     0
102
RTVSPost2010Prop53
 90
        2
102
RTVSPost2010PropOp53
 70
     1
102
RTVSPost2010Prop54
  1
strokes_ogs.tif
102
RTVSPost2010PropOp54
 70
     1
102
RTVSPost2010Prop55
280
     0
102
RTVSPost2010PropOp55
 70
     1
102
RTVSPost2010Prop56
140
1.0
102
RTVSPost2010PropOp56
 70
     1
102
RTVSPost2010Prop57
140
1.0
102
RTVSPost2010PropOp57
 70
     1
  0
XRECORD
  5
334
102
{ACAD_REACTORS
330
333
102
}
330
333
100
AcDbXrecord
280
     1
102
RTVSPropertyOp0
 70
     0
102
RTVSPropertyOp1
 70
     0
102
RTVSPropertyOp2
 70
     0
102
RTVSPropertyOp3
 70
     0
102
RTVSPropertyOp4
 70
     0
102
RTVSPropertyOp5
 70
     0
102
RTVSPropertyOp6
 70
     0
102
RTVSPropertyOp7
 70
     0
102
RTVSPropertyOp8
 70
     0
102
RTVSPropertyOp9
 70
     0
102
RTVSPropertyOp10
 70
     0
102
RTVSPropertyOp11
 70
     0
102
RTVSPropertyOp12
 70
     0
102
RTVSPropertyOp13
 70
     0
102
RTVSPropertyOp14
 70
     2
102
RTVSPropertyOp15
 70
     0
102
RTVSPropertyOp16
 70
     0
102
RTVSPropertyOp17
 70
     0
102
RTVSPropertyOp18
 70
     0
102
RTVSPropertyOp19
 70
     0
102
RTVSPropertyOp20
 70
     0
102
RTVSPropertyOp21
 70
     0
102
RTVSPropertyOp22
 70
     0
102
RTVSPropertyOp23
 70
     0
102
RTVSPropertyOp24
 70
     0
102
RTVSPropertyOp25
 70
     0
102
RTVSPropertyOp26
 70
     0
102
RTVSPropertyOp27
 70
     0
102
RTVSPropertyOp28
 70
     0
102
RTVSPropertyOp29
 70
     0
102
RTVSPropertyOp30
 70
     0
102
RTVSPropertyOp31
 70
     0
102
RTVSPropertyOp32
 70
     0
102
RTVSPropertyOp33
 70
     0
102
RTVSPropertyOp34
 70
     0
102
RTVSPropertyOp35
 70
     0
102
RTVSPropertyOp36
 70
     0
102
RTVSPropertyOp37
 70
     0
102
RTVSPropertyOp38
 70
     0
102
RTVSPropertyOp39
 70
     0
102
RTVSPropertyOp40
 70
     0
102
RTVSPropertyOp41
 70
     0
102
RTVSPropertyOp42
 70
     0
102
RTVSPropertyOp43
 70
     0
102
RTVSPropertyOp44
 70
     0
102
RTVSPropertyOp45
 70
     0
102
RTVSPropertyOp46
 70
     0
102
RTVSPropertyOp47
 70
     0
102
RTVSPropertyOp48
 70
     0
102
RTVSPropertyOp49
 70
     0
102
RTVSPropertyOp50
 70
     0
102
RTVSPropertyOp51
 70
     0
102
RTVSPropertyOp52
 70
     0
102
RTVSPropertyOp53
 70
     0
102
RTVSPropertyOp54
 70
     0
102
RTVSPropertyOp55
 70
     0
102
RTVSPropertyOp56
 70
     0
102
RTVSPropertyOp57
 70
     0
102
RTVSPost2010Prop28
280
     0
102
RTVSPost2010PropOp28
 70
     0
102
RTVSPost2010Prop29
280
     1
102
RTVSPost2010PropOp29
 70
     0
102
RTVSPost2010Prop30
280
     1
102
RTVSPost2010PropOp30
 70
     0
102
RTVSPost2010Prop31
280
     0
102
RTVSPost2010PropOp31
 70
     0
102
RTVSPost2010Prop32
280
     0
102
RTVSPost2010PropOp32
 70
     0
102
RTVSPost2010Prop33
280
     0
102
RTVSPost2010PropOp33
 70
     0
102
RTVSPost2010Prop34
280
     0
102
RTVSPost2010PropOp34
 70
     0
102
RTVSPost2010Prop35
280
     0
102
RTVSPost2010PropOp35
 70
     0
102
RTVSPost2010Prop36
280
     0
102
RTVSPost2010PropOp36
 70
     0
102
RTVSPost2010Prop37
 90
       50
102
RTVSPost2010PropOp37
 70
     0
102
RTVSPost2010Prop38
140
0.0
102
RTVSPost2010PropOp38
 70
     0
102
RTVSPost2010Prop39
140
1.0
102
RTVSPost2010PropOp39
 70
     0
102
RTVSPost2010Prop40
 90
        0
102
RTVSPost2010PropOp40
 70
     0
102
RTVSPost2010Prop41ColorIndex
 90
      178
102
RTVSPost2010Prop41ColorRGB
 90
        0
102
RTVSPost2010PropOp41
 70
     0
102
RTVSPost2010Prop42
 90
       50
102
RTVSPost2010PropOp42
 70
     0
102
RTVSPost2010Prop43
 90
        3
102
RTVSPost2010PropOp43
 70
     0
102
RTVSPost2010Prop44ColorIndex
 90
        5
102
RTVSPost2010Prop44ColorRGB
 90
      255
102
RTVSPost2010PropOp44
 70
     0
102
RTVSPost2010Prop45
280
     0
102
RTVSPost2010PropOp45
 70
     0
102
RTVSPost2010Prop46
 90
       50
102
RTVSPost2010PropOp46
 70
     0
102
RTVSPost2010Prop47
 90
       50
102
RTVSPost2010PropOp47
 70
     0
102
RTVSPost2010Prop48
 90
       50
102
RTVSPost2010PropOp48
 70
     0
102
RTVSPost2010Prop49
280
     0
102
RTVSPost2010PropOp49
 70
     0
102
RTVSPost2010Prop50
 90
       50
102
RTVSPost2010PropOp50
 70
     0
102
RTVSPost2010Prop51ColorIndex
 90
      256
102
RTVSPost2010Prop51ColorRGB
 90
-16777216
102
RTVSPost2010PropOp51
 70
     0
102
RTVSPost2010Prop52
140
1.0
102
RTVSPost2010PropOp52
 70
     0
102
RTVSPost2010Prop53
 90
        2
102
RTVSPost2010PropOp53
 70
     0
102
RTVSPost2010Prop54
  1
strokes_ogs.tif
102
RTVSPost2010PropOp54
 70
     0
102
RTVSPost2010Prop55
280
     0
102
RTVSPost2010PropOp55
 70
     0
102
RTVSPost2010Prop56
140
1.0
102
RTVSPost2010PropOp56
 70
     0
102
RTVSPost2010Prop57
140
1.0
102
RTVSPost2010PropOp57
 70
     0
  0
XRECORD
  5
32C
102
{ACAD_REACTORS
330
32B
102
}
330
32B
100
AcDbXrecord
280
     1
102
RTVSPropertyOp0
 70
     1
102
RTVSPropertyOp1
 70
     1
102
RTVSPropertyOp2
 70
     1
102
RTVSPropertyOp3
 70
     1
102
RTVSPropertyOp4
 70
     1
102
RTVSPropertyOp5
 70
     1
102
RTVSPropertyOp6
 70
     1
102
RTVSPropertyOp7
 70
     1
102
RTVSPropertyOp8
 70
     1
102
RTVSPropertyOp9
 70
     1
102
RTVSPropertyOp10
 70
     1
102
RTVSPropertyOp11
 70
     1
102
RTVSPropertyOp12
 70
     1
102
RTVSPropertyOp13
 70
     1
102
RTVSPropertyOp14
 70
     1
102
RTVSPropertyOp15
 70
     1
102
RTVSPropertyOp16
 70
     1
102
RTVSPropertyOp17
 70
     1
102
RTVSPropertyOp18
 70
     1
102
RTVSPropertyOp19
 70
     1
102
RTVSPropertyOp20
 70
     1
102
RTVSPropertyOp21
 70
     1
102
RTVSPropertyOp22
 70
     1
102
RTVSPropertyOp23
 70
     1
102
RTVSPropertyOp24
 70
     1
102
RTVSPropertyOp25
 70
     1
102
RTVSPropertyOp26
 70
     1
102
RTVSPropertyOp27
 70
     1
102
RTVSPropertyOp28
 70
     1
102
RTVSPropertyOp29
 70
     1
102
RTVSPropertyOp30
 70
     1
102
RTVSPropertyOp31
 70
     1
102
RTVSPropertyOp32
 70
     1
102
RTVSPropertyOp33
 70
     1
102
RTVSPropertyOp34
 70
     1
102
RTVSPropertyOp35
 70
     1
102
RTVSPropertyOp36
 70
     1
102
RTVSPropertyOp37
 70
     1
102
RTVSPropertyOp38
 70
     1
102
RTVSPropertyOp39
 70
     1
102
RTVSPropertyOp40
 70
     1
102
RTVSPropertyOp41
 70
     1
102
RTVSPropertyOp42
 70
     1
102
RTVSPropertyOp43
 70
     1
102
RTVSPropertyOp44
 70
     1
102
RTVSPropertyOp45
 70
     1
102
RTVSPropertyOp46
 70
     1
102
RTVSPropertyOp47
 70
     1
102
RTVSPropertyOp48
 70
     1
102
RTVSPropertyOp49
 70
     1
102
RTVSPropertyOp50
 70
     1
102
RTVSPropertyOp51
 70
     0
102
RTVSPropertyOp52
 70
     0
102
RTVSPropertyOp53
 70
     1
102
RTVSPropertyOp54
 70
     1
102
RTVSPropertyOp55
 70
     1
102
RTVSPropertyOp56
 70
     1
102
RTVSPropertyOp57
 70
     1
102
RTVSPost2010Prop28
280
     0
102
RTVSPost2010PropOp28
 70
     1
102
RTVSPost2010Prop29
280
     1
102
RTVSPost2010PropOp29
 70
     1
102
RTVSPost2010Prop30
280
     1
102
RTVSPost2010PropOp30
 70
     1
102
RTVSPost2010Prop31
280
     0
102
RTVSPost2010PropOp31
 70
     1
102
RTVSPost2010Prop32
280
     0
102
RTVSPost2010PropOp32
 70
     1
102
RTVSPost2010Prop33
280
     0
102
RTVSPost2010PropOp33
 70
     1
102
RTVSPost2010Prop34
280
     0
102
RTVSPost2010PropOp34
 70
     1
102
RTVSPost2010Prop35
280
     0
102
RTVSPost2010PropOp35
 70
     1
102
RTVSPost2010Prop36
280
     0
102
RTVSPost2010PropOp36
 70
     1
102
RTVSPost2010Prop37
 90
       50
102
RTVSPost2010PropOp37
 70
     1
102
RTVSPost2010Prop38
140
0.0
102
RTVSPost2010PropOp38
 70
     1
102
RTVSPost2010Prop39
140
1.0
102
RTVSPost2010PropOp39
 70
     1
102
RTVSPost2010Prop40
 90
        0
102
RTVSPost2010PropOp40
 70
     1
102
RTVSPost2010Prop41ColorIndex
 90
      178
102
RTVSPost2010Prop41ColorRGB
 90
        0
102
RTVSPost2010PropOp41
 70
     1
102
RTVSPost2010Prop42
 90
       50
102
RTVSPost2010PropOp42
 70
     1
102
RTVSPost2010Prop43
 90
        3
102
RTVSPost2010PropOp43
 70
     1
102
RTVSPost2010Prop44ColorIndex
 90
        5
102
RTVSPost2010Prop44ColorRGB
 90
      255
102
RTVSPost2010PropOp44
 70
     1
102
RTVSPost2010Prop45
280
     0
102
RTVSPost2010PropOp45
 70
     1
102
RTVSPost2010Prop46
 90
       50
102
RTVSPost2010PropOp46
 70
     1
102
RTVSPost2010Prop47
 90
       50
102
RTVSPost2010PropOp47
 70
     1
102
RTVSPost2010Prop48
 90
       50
102
RTVSPost2010PropOp48
 70
     1
102
RTVSPost2010Prop49
280
     0
102
RTVSPost2010PropOp49
 70
     1
102
RTVSPost2010Prop50
 90
       50
102
RTVSPost2010PropOp50
 70
     1
102
RTVSPost2010Prop51ColorIndex
 90
      256
102
RTVSPost2010Prop51ColorRGB
 90
-16777216
102
RTVSPost2010PropOp51
 70
     0
102
RTVSPost2010Prop52
140
1.0
102
RTVSPost2010PropOp52
 70
     0
102
RTVSPost2010Prop53
 90
        2
102
RTVSPost2010PropOp53
 70
     1
102
RTVSPost2010Prop54
  1
strokes_ogs.tif
102
RTVSPost2010PropOp54
 70
     1
102
RTVSPost2010Prop55
280
     0
102
RTVSPost2010PropOp55
 70
     1
102
RTVSPost2010Prop56
140
1.0
102
RTVSPost2010PropOp56
 70
     1
102
RTVSPost2010Prop57
140
1.0
102
RTVSPost2010PropOp57
 70
     1
  0
XRECORD
  5
310
102
{ACAD_REACTORS
330
30F
102
}
330
30F
100
AcDbXrecord
280
     1
102
RTVSPropertyOp0
 70
     1
102
RTVSPropertyOp1
 70
     1
102
RTVSPropertyOp2
 70
     1
102
RTVSPropertyOp3
 70
     1
102
RTVSPropertyOp4
 70
     1
102
RTVSPropertyOp5
 70
     1
102
RTVSPropertyOp6
 70
     1
102
RTVSPropertyOp7
 70
     1
102
RTVSPropertyOp8
 70
     1
102
RTVSPropertyOp9
 70
     1
102
RTVSPropertyOp10
 70
     1
102
RTVSPropertyOp11
 70
     1
102
RTVSPropertyOp12
 70
     1
102
RTVSPropertyOp13
 70
     1
102
RTVSPropertyOp14
 70
     1
102
RTVSPropertyOp15
 70
     1
102
RTVSPropertyOp16
 70
     1
102
RTVSPropertyOp17
 70
     1
102
RTVSPropertyOp18
 70
     1
102
RTVSPropertyOp19
 70
     1
102
RTVSPropertyOp20
 70
     1
102
RTVSPropertyOp21
 70
     1
102
RTVSPropertyOp22
 70
     1
102
RTVSPropertyOp23
 70
     1
102
RTVSPropertyOp24
 70
     1
102
RTVSPropertyOp25
 70
     1
102
RTVSPropertyOp26
 70
     1
102
RTVSPropertyOp27
 70
     1
102
RTVSPropertyOp28
 70
     1
102
RTVSPropertyOp29
 70
     1
102
RTVSPropertyOp30
 70
     1
102
RTVSPropertyOp31
 70
     1
102
RTVSPropertyOp32
 70
     1
102
RTVSPropertyOp33
 70
     1
102
RTVSPropertyOp34
 70
     1
102
RTVSPropertyOp35
 70
     1
102
RTVSPropertyOp36
 70
     1
102
RTVSPropertyOp37
 70
     1
102
RTVSPropertyOp38
 70
     1
102
RTVSPropertyOp39
 70
     1
102
RTVSPropertyOp40
 70
     1
102
RTVSPropertyOp41
 70
     1
102
RTVSPropertyOp42
 70
     1
102
RTVSPropertyOp43
 70
     1
102
RTVSPropertyOp44
 70
     1
102
RTVSPropertyOp45
 70
     1
102
RTVSPropertyOp46
 70
     1
102
RTVSPropertyOp47
 70
     1
102
RTVSPropertyOp48
 70
     1
102
RTVSPropertyOp49
 70
     1
102
RTVSPropertyOp50
 70
     1
102
RTVSPropertyOp51
 70
     0
102
RTVSPropertyOp52
 70
     0
102
RTVSPropertyOp53
 70
     1
102
RTVSPropertyOp54
 70
     1
102
RTVSPropertyOp55
 70
     1
102
RTVSPropertyOp56
 70
     1
102
RTVSPropertyOp57
 70
     1
102
RTVSPost2010Prop28
280
     0
102
RTVSPost2010PropOp28
 70
     1
102
RTVSPost2010Prop29
280
     1
102
RTVSPost2010PropOp29
 70
     1
102
RTVSPost2010Prop30
280
     1
102
RTVSPost2010PropOp30
 70
     1
102
RTVSPost2010Prop31
280
     0
102
RTVSPost2010PropOp31
 70
     1
102
RTVSPost2010Prop32
280
     0
102
RTVSPost2010PropOp32
 70
     1
102
RTVSPost2010Prop33
280
     0
102
RTVSPost2010PropOp33
 70
     1
102
RTVSPost2010Prop34
280
     0
102
RTVSPost2010PropOp34
 70
     1
102
RTVSPost2010Prop35
280
     0
102
RTVSPost2010PropOp35
 70
     1
102
RTVSPost2010Prop36
280
     0
102
RTVSPost2010PropOp36
 70
     1
102
RTVSPost2010Prop37
 90
       50
102
RTVSPost2010PropOp37
 70
     1
102
RTVSPost2010Prop38
140
0.0
102
RTVSPost2010PropOp38
 70
     1
102
RTVSPost2010Prop39
140
1.0
102
RTVSPost2010PropOp39
 70
     1
102
RTVSPost2010Prop40
 90
        0
102
RTVSPost2010PropOp40
 70
     1
102
RTVSPost2010Prop41ColorIndex
 90
      178
102
RTVSPost2010Prop41ColorRGB
 90
        0
102
RTVSPost2010PropOp41
 70
     1
102
RTVSPost2010Prop42
 90
       50
102
RTVSPost2010PropOp42
 70
     1
102
RTVSPost2010Prop43
 90
        3
102
RTVSPost2010PropOp43
 70
     1
102
RTVSPost2010Prop44ColorIndex
 90
        5
102
RTVSPost2010Prop44ColorRGB
 90
      255
102
RTVSPost2010PropOp44
 70
     1
102
RTVSPost2010Prop45
280
     0
102
RTVSPost2010PropOp45
 70
     1
102
RTVSPost2010Prop46
 90
       50
102
RTVSPost2010PropOp46
 70
     1
102
RTVSPost2010Prop47
 90
       50
102
RTVSPost2010PropOp47
 70
     1
102
RTVSPost2010Prop48
 90
       50
102
RTVSPost2010PropOp48
 70
     1
102
RTVSPost2010Prop49
280
     0
102
RTVSPost2010PropOp49
 70
     1
102
RTVSPost2010Prop50
 90
       50
102
RTVSPost2010PropOp50
 70
     1
102
RTVSPost2010Prop51ColorIndex
 90
      256
102
RTVSPost2010Prop51ColorRGB
 90
-16777216
102
RTVSPost2010PropOp51
 70
     0
102
RTVSPost2010Prop52
140
1.0
102
RTVSPost2010PropOp52
 70
     0
102
RTVSPost2010Prop53
 90
        2
102
RTVSPost2010PropOp53
 70
     1
102
RTVSPost2010Prop54
  1
strokes_ogs.tif
102
RTVSPost2010PropOp54
 70
     1
102
RTVSPost2010Prop55
280
     0
102
RTVSPost2010PropOp55
 70
     1
102
RTVSPost2010Prop56
140
1.0
102
RTVSPost2010PropOp56
 70
     1
102
RTVSPost2010Prop57
140
1.0
102
RTVSPost2010PropOp57
 70
     1
  0
XRECORD
  5
312
102
{ACAD_REACTORS
330
311
102
}
330
311
100
AcDbXrecord
280
     1
102
RTVSPropertyOp0
 70
     1
102
RTVSPropertyOp1
 70
     1
102
RTVSPropertyOp2
 70
     1
102
RTVSPropertyOp3
 70
     1
102
RTVSPropertyOp4
 70
     1
102
RTVSPropertyOp5
 70
     1
102
RTVSPropertyOp6
 70
     1
102
RTVSPropertyOp7
 70
     1
102
RTVSPropertyOp8
 70
     1
102
RTVSPropertyOp9
 70
     1
102
RTVSPropertyOp10
 70
     1
102
RTVSPropertyOp11
 70
     1
102
RTVSPropertyOp12
 70
     1
102
RTVSPropertyOp13
 70
     1
102
RTVSPropertyOp14
 70
     1
102
RTVSPropertyOp15
 70
     1
102
RTVSPropertyOp16
 70
     1
102
RTVSPropertyOp17
 70
     1
102
RTVSPropertyOp18
 70
     1
102
RTVSPropertyOp19
 70
     1
102
RTVSPropertyOp20
 70
     1
102
RTVSPropertyOp21
 70
     1
102
RTVSPropertyOp22
 70
     1
102
RTVSPropertyOp23
 70
     1
102
RTVSPropertyOp24
 70
     1
102
RTVSPropertyOp25
 70
     1
102
RTVSPropertyOp26
 70
     1
102
RTVSPropertyOp27
 70
     1
102
RTVSPropertyOp28
 70
     1
102
RTVSPropertyOp29
 70
     1
102
RTVSPropertyOp30
 70
     1
102
RTVSPropertyOp31
 70
     1
102
RTVSPropertyOp32
 70
     1
102
RTVSPropertyOp33
 70
     1
102
RTVSPropertyOp34
 70
     1
102
RTVSPropertyOp35
 70
     1
102
RTVSPropertyOp36
 70
     1
102
RTVSPropertyOp37
 70
     1
102
RTVSPropertyOp38
 70
     1
102
RTVSPropertyOp39
 70
     1
102
RTVSPropertyOp40
 70
     1
102
RTVSPropertyOp41
 70
     1
102
RTVSPropertyOp42
 70
     1
102
RTVSPropertyOp43
 70
     1
102
RTVSPropertyOp44
 70
     1
102
RTVSPropertyOp45
 70
     1
102
RTVSPropertyOp46
 70
     1
102
RTVSPropertyOp47
 70
     1
102
RTVSPropertyOp48
 70
     1
102
RTVSPropertyOp49
 70
     1
102
RTVSPropertyOp50
 70
     1
102
RTVSPropertyOp51
 70
     0
102
RTVSPropertyOp52
 70
     0
102
RTVSPropertyOp53
 70
     1
102
RTVSPropertyOp54
 70
     1
102
RTVSPropertyOp55
 70
     1
102
RTVSPropertyOp56
 70
     1
102
RTVSPropertyOp57
 70
     1
102
RTVSPost2010Prop28
280
     0
102
RTVSPost2010PropOp28
 70
     1
102
RTVSPost2010Prop29
280
     1
102
RTVSPost2010PropOp29
 70
     1
102
RTVSPost2010Prop30
280
     1
102
RTVSPost2010PropOp30
 70
     1
102
RTVSPost2010Prop31
280
     0
102
RTVSPost2010PropOp31
 70
     1
102
RTVSPost2010Prop32
280
     0
102
RTVSPost2010PropOp32
 70
     1
102
RTVSPost2010Prop33
280
     0
102
RTVSPost2010PropOp33
 70
     1
102
RTVSPost2010Prop34
280
     0
102
RTVSPost2010PropOp34
 70
     1
102
RTVSPost2010Prop35
280
     0
102
RTVSPost2010PropOp35
 70
     1
102
RTVSPost2010Prop36
280
     0
102
RTVSPost2010PropOp36
 70
     1
102
RTVSPost2010Prop37
 90
       50
102
RTVSPost2010PropOp37
 70
     1
102
RTVSPost2010Prop38
140
0.0
102
RTVSPost2010PropOp38
 70
     1
102
RTVSPost2010Prop39
140
1.0
102
RTVSPost2010PropOp39
 70
     1
102
RTVSPost2010Prop40
 90
        0
102
RTVSPost2010PropOp40
 70
     1
102
RTVSPost2010Prop41ColorIndex
 90
      178
102
RTVSPost2010Prop41ColorRGB
 90
        0
102
RTVSPost2010PropOp41
 70
     1
102
RTVSPost2010Prop42
 90
       50
102
RTVSPost2010PropOp42
 70
     1
102
RTVSPost2010Prop43
 90
        3
102
RTVSPost2010PropOp43
 70
     1
102
RTVSPost2010Prop44ColorIndex
 90
        5
102
RTVSPost2010Prop44ColorRGB
 90
      255
102
RTVSPost2010PropOp44
 70
     1
102
RTVSPost2010Prop45
280
     0
102
RTVSPost2010PropOp45
 70
     1
102
RTVSPost2010Prop46
 90
       50
102
RTVSPost2010PropOp46
 70
     1
102
RTVSPost2010Prop47
 90
       50
102
RTVSPost2010PropOp47
 70
     1
102
RTVSPost2010Prop48
 90
       50
102
RTVSPost2010PropOp48
 70
     1
102
RTVSPost2010Prop49
280
     0
102
RTVSPost2010PropOp49
 70
     1
102
RTVSPost2010Prop50
 90
       50
102
RTVSPost2010PropOp50
 70
     1
102
RTVSPost2010Prop51ColorIndex
 90
      256
102
RTVSPost2010Prop51ColorRGB
 90
-16777216
102
RTVSPost2010PropOp51
 70
     0
102
RTVSPost2010Prop52
140
1.0
102
RTVSPost2010PropOp52
 70
     0
102
RTVSPost2010Prop53
 90
        2
102
RTVSPost2010PropOp53
 70
     1
102
RTVSPost2010Prop54
  1
strokes_ogs.tif
102
RTVSPost2010PropOp54
 70
     1
102
RTVSPost2010Prop55
280
     0
102
RTVSPost2010PropOp55
 70
     1
102
RTVSPost2010Prop56
140
1.0
102
RTVSPost2010PropOp56
 70
     1
102
RTVSPost2010Prop57
140
1.0
102
RTVSPost2010PropOp57
 70
     1
  0
XRECORD
  5
314
102
{ACAD_REACTORS
330
313
102
}
330
313
100
AcDbXrecord
280
     1
102
RTVSPropertyOp0
 70
     1
102
RTVSPropertyOp1
 70
     1
102
RTVSPropertyOp2
 70
     1
102
RTVSPropertyOp3
 70
     1
102
RTVSPropertyOp4
 70
     1
102
RTVSPropertyOp5
 70
     1
102
RTVSPropertyOp6
 70
     1
102
RTVSPropertyOp7
 70
     1
102
RTVSPropertyOp8
 70
     1
102
RTVSPropertyOp9
 70
     1
102
RTVSPropertyOp10
 70
     1
102
RTVSPropertyOp11
 70
     1
102
RTVSPropertyOp12
 70
     1
102
RTVSPropertyOp13
 70
     1
102
RTVSPropertyOp14
 70
     1
102
RTVSPropertyOp15
 70
     1
102
RTVSPropertyOp16
 70
     1
102
RTVSPropertyOp17
 70
     1
102
RTVSPropertyOp18
 70
     1
102
RTVSPropertyOp19
 70
     1
102
RTVSPropertyOp20
 70
     1
102
RTVSPropertyOp21
 70
     1
102
RTVSPropertyOp22
 70
     1
102
RTVSPropertyOp23
 70
     1
102
RTVSPropertyOp24
 70
     1
102
RTVSPropertyOp25
 70
     1
102
RTVSPropertyOp26
 70
     1
102
RTVSPropertyOp27
 70
     1
102
RTVSPropertyOp28
 70
     1
102
RTVSPropertyOp29
 70
     1
102
RTVSPropertyOp30
 70
     1
102
RTVSPropertyOp31
 70
     1
102
RTVSPropertyOp32
 70
     1
102
RTVSPropertyOp33
 70
     1
102
RTVSPropertyOp34
 70
     1
102
RTVSPropertyOp35
 70
     1
102
RTVSPropertyOp36
 70
     1
102
RTVSPropertyOp37
 70
     1
102
RTVSPropertyOp38
 70
     1
102
RTVSPropertyOp39
 70
     1
102
RTVSPropertyOp40
 70
     1
102
RTVSPropertyOp41
 70
     1
102
RTVSPropertyOp42
 70
     1
102
RTVSPropertyOp43
 70
     1
102
RTVSPropertyOp44
 70
     1
102
RTVSPropertyOp45
 70
     1
102
RTVSPropertyOp46
 70
     1
102
RTVSPropertyOp47
 70
     1
102
RTVSPropertyOp48
 70
     1
102
RTVSPropertyOp49
 70
     1
102
RTVSPropertyOp50
 70
     1
102
RTVSPropertyOp51
 70
     0
102
RTVSPropertyOp52
 70
     0
102
RTVSPropertyOp53
 70
     1
102
RTVSPropertyOp54
 70
     1
102
RTVSPropertyOp55
 70
     1
102
RTVSPropertyOp56
 70
     1
102
RTVSPropertyOp57
 70
     1
102
RTVSPost2010Prop28
280
     0
102
RTVSPost2010PropOp28
 70
     1
102
RTVSPost2010Prop29
280
     1
102
RTVSPost2010PropOp29
 70
     1
102
RTVSPost2010Prop30
280
     1
102
RTVSPost2010PropOp30
 70
     1
102
RTVSPost2010Prop31
280
     0
102
RTVSPost2010PropOp31
 70
     1
102
RTVSPost2010Prop32
280
     0
102
RTVSPost2010PropOp32
 70
     1
102
RTVSPost2010Prop33
280
     0
102
RTVSPost2010PropOp33
 70
     1
102
RTVSPost2010Prop34
280
     0
102
RTVSPost2010PropOp34
 70
     1
102
RTVSPost2010Prop35
280
     0
102
RTVSPost2010PropOp35
 70
     1
102
RTVSPost2010Prop36
280
     0
102
RTVSPost2010PropOp36
 70
     1
102
RTVSPost2010Prop37
 90
       50
102
RTVSPost2010PropOp37
 70
     1
102
RTVSPost2010Prop38
140
0.0
102
RTVSPost2010PropOp38
 70
     1
102
RTVSPost2010Prop39
140
1.0
102
RTVSPost2010PropOp39
 70
     1
102
RTVSPost2010Prop40
 90
        0
102
RTVSPost2010PropOp40
 70
     1
102
RTVSPost2010Prop41ColorIndex
 90
      178
102
RTVSPost2010Prop41ColorRGB
 90
        0
102
RTVSPost2010PropOp41
 70
     1
102
RTVSPost2010Prop42
 90
       50
102
RTVSPost2010PropOp42
 70
     1
102
RTVSPost2010Prop43
 90
        3
102
RTVSPost2010PropOp43
 70
     1
102
RTVSPost2010Prop44ColorIndex
 90
        5
102
RTVSPost2010Prop44ColorRGB
 90
      255
102
RTVSPost2010PropOp44
 70
     1
102
RTVSPost2010Prop45
280
     0
102
RTVSPost2010PropOp45
 70
     1
102
RTVSPost2010Prop46
 90
       50
102
RTVSPost2010PropOp46
 70
     1
102
RTVSPost2010Prop47
 90
       50
102
RTVSPost2010PropOp47
 70
     1
102
RTVSPost2010Prop48
 90
       50
102
RTVSPost2010PropOp48
 70
     1
102
RTVSPost2010Prop49
280
     0
102
RTVSPost2010PropOp49
 70
     1
102
RTVSPost2010Prop50
 90
       50
102
RTVSPost2010PropOp50
 70
     1
102
RTVSPost2010Prop51ColorIndex
 90
      256
102
RTVSPost2010Prop51ColorRGB
 90
-16777216
102
RTVSPost2010PropOp51
 70
     0
102
RTVSPost2010Prop52
140
1.0
102
RTVSPost2010PropOp52
 70
     0
102
RTVSPost2010Prop53
 90
        2
102
RTVSPost2010PropOp53
 70
     1
102
RTVSPost2010Prop54
  1
strokes_ogs.tif
102
RTVSPost2010PropOp54
 70
     1
102
RTVSPost2010Prop55
280
     0
102
RTVSPost2010PropOp55
 70
     1
102
RTVSPost2010Prop56
140
1.0
102
RTVSPost2010PropOp56
 70
     1
102
RTVSPost2010Prop57
140
1.0
102
RTVSPost2010PropOp57
 70
     1
  0
XRECORD
  5
316
102
{ACAD_REACTORS
330
315
102
}
330
315
100
AcDbXrecord
280
     1
102
RTVSPropertyOp0
 70
     1
102
RTVSPropertyOp1
 70
     1
102
RTVSPropertyOp2
 70
     1
102
RTVSPropertyOp3
 70
     1
102
RTVSPropertyOp4
 70
     1
102
RTVSPropertyOp5
 70
     1
102
RTVSPropertyOp6
 70
     1
102
RTVSPropertyOp7
 70
     1
102
RTVSPropertyOp8
 70
     1
102
RTVSPropertyOp9
 70
     1
102
RTVSPropertyOp10
 70
     1
102
RTVSPropertyOp11
 70
     1
102
RTVSPropertyOp12
 70
     1
102
RTVSPropertyOp13
 70
     1
102
RTVSPropertyOp14
 70
     1
102
RTVSPropertyOp15
 70
     1
102
RTVSPropertyOp16
 70
     1
102
RTVSPropertyOp17
 70
     1
102
RTVSPropertyOp18
 70
     1
102
RTVSPropertyOp19
 70
     1
102
RTVSPropertyOp20
 70
     1
102
RTVSPropertyOp21
 70
     1
102
RTVSPropertyOp22
 70
     1
102
RTVSPropertyOp23
 70
     1
102
RTVSPropertyOp24
 70
     1
102
RTVSPropertyOp25
 70
     1
102
RTVSPropertyOp26
 70
     1
102
RTVSPropertyOp27
 70
     1
102
RTVSPropertyOp28
 70
     1
102
RTVSPropertyOp29
 70
     1
102
RTVSPropertyOp30
 70
     1
102
RTVSPropertyOp31
 70
     1
102
RTVSPropertyOp32
 70
     1
102
RTVSPropertyOp33
 70
     1
102
RTVSPropertyOp34
 70
     1
102
RTVSPropertyOp35
 70
     1
102
RTVSPropertyOp36
 70
     1
102
RTVSPropertyOp37
 70
     1
102
RTVSPropertyOp38
 70
     1
102
RTVSPropertyOp39
 70
     1
102
RTVSPropertyOp40
 70
     1
102
RTVSPropertyOp41
 70
     1
102
RTVSPropertyOp42
 70
     1
102
RTVSPropertyOp43
 70
     1
102
RTVSPropertyOp44
 70
     1
102
RTVSPropertyOp45
 70
     1
102
RTVSPropertyOp46
 70
     1
102
RTVSPropertyOp47
 70
     1
102
RTVSPropertyOp48
 70
     1
102
RTVSPropertyOp49
 70
     1
102
RTVSPropertyOp50
 70
     1
102
RTVSPropertyOp51
 70
     0
102
RTVSPropertyOp52
 70
     0
102
RTVSPropertyOp53
 70
     1
102
RTVSPropertyOp54
 70
     1
102
RTVSPropertyOp55
 70
     1
102
RTVSPropertyOp56
 70
     1
102
RTVSPropertyOp57
 70
     1
102
RTVSPost2010Prop28
280
     0
102
RTVSPost2010PropOp28
 70
     1
102
RTVSPost2010Prop29
280
     1
102
RTVSPost2010PropOp29
 70
     1
102
RTVSPost2010Prop30
280
     1
102
RTVSPost2010PropOp30
 70
     1
102
RTVSPost2010Prop31
280
     0
102
RTVSPost2010PropOp31
 70
     1
102
RTVSPost2010Prop32
280
     0
102
RTVSPost2010PropOp32
 70
     1
102
RTVSPost2010Prop33
280
     0
102
RTVSPost2010PropOp33
 70
     1
102
RTVSPost2010Prop34
280
     0
102
RTVSPost2010PropOp34
 70
     1
102
RTVSPost2010Prop35
280
     0
102
RTVSPost2010PropOp35
 70
     1
102
RTVSPost2010Prop36
280
     0
102
RTVSPost2010PropOp36
 70
     1
102
RTVSPost2010Prop37
 90
       50
102
RTVSPost2010PropOp37
 70
     1
102
RTVSPost2010Prop38
140
0.0
102
RTVSPost2010PropOp38
 70
     1
102
RTVSPost2010Prop39
140
1.0
102
RTVSPost2010PropOp39
 70
     1
102
RTVSPost2010Prop40
 90
        0
102
RTVSPost2010PropOp40
 70
     1
102
RTVSPost2010Prop41ColorIndex
 90
      178
102
RTVSPost2010Prop41ColorRGB
 90
        0
102
RTVSPost2010PropOp41
 70
     1
102
RTVSPost2010Prop42
 90
       50
102
RTVSPost2010PropOp42
 70
     1
102
RTVSPost2010Prop43
 90
        3
102
RTVSPost2010PropOp43
 70
     1
102
RTVSPost2010Prop44ColorIndex
 90
        5
102
RTVSPost2010Prop44ColorRGB
 90
      255
102
RTVSPost2010PropOp44
 70
     1
102
RTVSPost2010Prop45
280
     0
102
RTVSPost2010PropOp45
 70
     1
102
RTVSPost2010Prop46
 90
       50
102
RTVSPost2010PropOp46
 70
     1
102
RTVSPost2010Prop47
 90
       50
102
RTVSPost2010PropOp47
 70
     1
102
RTVSPost2010Prop48
 90
       50
102
RTVSPost2010PropOp48
 70
     1
102
RTVSPost2010Prop49
280
     0
102
RTVSPost2010PropOp49
 70
     1
102
RTVSPost2010Prop50
 90
       50
102
RTVSPost2010PropOp50
 70
     1
102
RTVSPost2010Prop51ColorIndex
 90
      256
102
RTVSPost2010Prop51ColorRGB
 90
-16777216
102
RTVSPost2010PropOp51
 70
     0
102
RTVSPost2010Prop52
140
1.0
102
RTVSPost2010PropOp52
 70
     0
102
RTVSPost2010Prop53
 90
        2
102
RTVSPost2010PropOp53
 70
     1
102
RTVSPost2010Prop54
  1
strokes_ogs.tif
102
RTVSPost2010PropOp54
 70
     1
102
RTVSPost2010Prop55
280
     0
102
RTVSPost2010PropOp55
 70
     1
102
RTVSPost2010Prop56
140
1.0
102
RTVSPost2010PropOp56
 70
     1
102
RTVSPost2010Prop57
140
1.0
102
RTVSPost2010PropOp57
 70
     1
  0
XRECORD
  5
31C
102
{ACAD_REACTORS
330
31B
102
}
330
31B
100
AcDbXrecord
280
     1
102
RTVSPropertyOp0
 70
     1
102
RTVSPropertyOp1
 70
     1
102
RTVSPropertyOp2
 70
     1
102
RTVSPropertyOp3
 70
     1
102
RTVSPropertyOp4
 70
     1
102
RTVSPropertyOp5
 70
     1
102
RTVSPropertyOp6
 70
     1
102
RTVSPropertyOp7
 70
     1
102
RTVSPropertyOp8
 70
     1
102
RTVSPropertyOp9
 70
     1
102
RTVSPropertyOp10
 70
     1
102
RTVSPropertyOp11
 70
     1
102
RTVSPropertyOp12
 70
     1
102
RTVSPropertyOp13
 70
     1
102
RTVSPropertyOp14
 70
     1
102
RTVSPropertyOp15
 70
     1
102
RTVSPropertyOp16
 70
     1
102
RTVSPropertyOp17
 70
     1
102
RTVSPropertyOp18
 70
     1
102
RTVSPropertyOp19
 70
     1
102
RTVSPropertyOp20
 70
     1
102
RTVSPropertyOp21
 70
     1
102
RTVSPropertyOp22
 70
     1
102
RTVSPropertyOp23
 70
     1
102
RTVSPropertyOp24
 70
     1
102
RTVSPropertyOp25
 70
     1
102
RTVSPropertyOp26
 70
     1
102
RTVSPropertyOp27
 70
     1
102
RTVSPropertyOp28
 70
     1
102
RTVSPropertyOp29
 70
     1
102
RTVSPropertyOp30
 70
     1
102
RTVSPropertyOp31
 70
     1
102
RTVSPropertyOp32
 70
     1
102
RTVSPropertyOp33
 70
     1
102
RTVSPropertyOp34
 70
     1
102
RTVSPropertyOp35
 70
     1
102
RTVSPropertyOp36
 70
     1
102
RTVSPropertyOp37
 70
     1
102
RTVSPropertyOp38
 70
     1
102
RTVSPropertyOp39
 70
     1
102
RTVSPropertyOp40
 70
     1
102
RTVSPropertyOp41
 70
     1
102
RTVSPropertyOp42
 70
     1
102
RTVSPropertyOp43
 70
     1
102
RTVSPropertyOp44
 70
     1
102
RTVSPropertyOp45
 70
     1
102
RTVSPropertyOp46
 70
     1
102
RTVSPropertyOp47
 70
     1
102
RTVSPropertyOp48
 70
     1
102
RTVSPropertyOp49
 70
     1
102
RTVSPropertyOp50
 70
     1
102
RTVSPropertyOp51
 70
     0
102
RTVSPropertyOp52
 70
     0
102
RTVSPropertyOp53
 70
     1
102
RTVSPropertyOp54
 70
     1
102
RTVSPropertyOp55
 70
     1
102
RTVSPropertyOp56
 70
     1
102
RTVSPropertyOp57
 70
     1
102
RTVSPost2010Prop28
280
     0
102
RTVSPost2010PropOp28
 70
     1
102
RTVSPost2010Prop29
280
     1
102
RTVSPost2010PropOp29
 70
     1
102
RTVSPost2010Prop30
280
     1
102
RTVSPost2010PropOp30
 70
     1
102
RTVSPost2010Prop31
280
     0
102
RTVSPost2010PropOp31
 70
     1
102
RTVSPost2010Prop32
280
     0
102
RTVSPost2010PropOp32
 70
     1
102
RTVSPost2010Prop33
280
     0
102
RTVSPost2010PropOp33
 70
     1
102
RTVSPost2010Prop34
280
     0
102
RTVSPost2010PropOp34
 70
     1
102
RTVSPost2010Prop35
280
     0
102
RTVSPost2010PropOp35
 70
     1
102
RTVSPost2010Prop36
280
     0
102
RTVSPost2010PropOp36
 70
     1
102
RTVSPost2010Prop37
 90
       50
102
RTVSPost2010PropOp37
 70
     1
102
RTVSPost2010Prop38
140
0.0
102
RTVSPost2010PropOp38
 70
     1
102
RTVSPost2010Prop39
140
1.0
102
RTVSPost2010PropOp39
 70
     1
102
RTVSPost2010Prop40
 90
        0
102
RTVSPost2010PropOp40
 70
     1
102
RTVSPost2010Prop41ColorIndex
 90
      178
102
RTVSPost2010Prop41ColorRGB
 90
        0
102
RTVSPost2010PropOp41
 70
     1
102
RTVSPost2010Prop42
 90
       50
102
RTVSPost2010PropOp42
 70
     1
102
RTVSPost2010Prop43
 90
        3
102
RTVSPost2010PropOp43
 70
     1
102
RTVSPost2010Prop44ColorIndex
 90
        5
102
RTVSPost2010Prop44ColorRGB
 90
      255
102
RTVSPost2010PropOp44
 70
     1
102
RTVSPost2010Prop45
280
     0
102
RTVSPost2010PropOp45
 70
     1
102
RTVSPost2010Prop46
 90
       50
102
RTVSPost2010PropOp46
 70
     1
102
RTVSPost2010Prop47
 90
       50
102
RTVSPost2010PropOp47
 70
     1
102
RTVSPost2010Prop48
 90
       50
102
RTVSPost2010PropOp48
 70
     1
102
RTVSPost2010Prop49
280
     0
102
RTVSPost2010PropOp49
 70
     1
102
RTVSPost2010Prop50
 90
       50
102
RTVSPost2010PropOp50
 70
     1
102
RTVSPost2010Prop51ColorIndex
 90
      256
102
RTVSPost2010Prop51ColorRGB
 90
-16777216
102
RTVSPost2010PropOp51
 70
     0
102
RTVSPost2010Prop52
140
1.0
102
RTVSPost2010PropOp52
 70
     0
102
RTVSPost2010Prop53
 90
        2
102
RTVSPost2010PropOp53
 70
     1
102
RTVSPost2010Prop54
  1
strokes_ogs.tif
102
RTVSPost2010PropOp54
 70
     1
102
RTVSPost2010Prop55
280
     0
102
RTVSPost2010PropOp55
 70
     1
102
RTVSPost2010Prop56
140
1.0
102
RTVSPost2010PropOp56
 70
     1
102
RTVSPost2010Prop57
140
1.0
102
RTVSPost2010PropOp57
 70
     1
  0
XRECORD
  5
330
102
{ACAD_REACTORS
330
32F
102
}
330
32F
100
AcDbXrecord
280
     1
102
RTVSPropertyOp0
 70
     0
102
RTVSPropertyOp1
 70
     0
102
RTVSPropertyOp2
 70
     0
102
RTVSPropertyOp3
 70
     0
102
RTVSPropertyOp4
 70
     0
102
RTVSPropertyOp5
 70
     0
102
RTVSPropertyOp6
 70
     0
102
RTVSPropertyOp7
 70
     0
102
RTVSPropertyOp8
 70
     0
102
RTVSPropertyOp9
 70
     0
102
RTVSPropertyOp10
 70
     0
102
RTVSPropertyOp11
 70
     0
102
RTVSPropertyOp12
 70
     0
102
RTVSPropertyOp13
 70
     0
102
RTVSPropertyOp14
 70
     2
102
RTVSPropertyOp15
 70
     0
102
RTVSPropertyOp16
 70
     0
102
RTVSPropertyOp17
 70
     0
102
RTVSPropertyOp18
 70
     0
102
RTVSPropertyOp19
 70
     0
102
RTVSPropertyOp20
 70
     0
102
RTVSPropertyOp21
 70
     0
102
RTVSPropertyOp22
 70
     0
102
RTVSPropertyOp23
 70
     0
102
RTVSPropertyOp24
 70
     0
102
RTVSPropertyOp25
 70
     0
102
RTVSPropertyOp26
 70
     0
102
RTVSPropertyOp27
 70
     0
102
RTVSPropertyOp28
 70
     0
102
RTVSPropertyOp29
 70
     0
102
RTVSPropertyOp30
 70
     0
102
RTVSPropertyOp31
 70
     0
102
RTVSPropertyOp32
 70
     0
102
RTVSPropertyOp33
 70
     0
102
RTVSPropertyOp34
 70
     0
102
RTVSPropertyOp35
 70
     0
102
RTVSPropertyOp36
 70
     0
102
RTVSPropertyOp37
 70
     0
102
RTVSPropertyOp38
 70
     0
102
RTVSPropertyOp39
 70
     0
102
RTVSPropertyOp40
 70
     0
102
RTVSPropertyOp41
 70
     0
102
RTVSPropertyOp42
 70
     0
102
RTVSPropertyOp43
 70
     0
102
RTVSPropertyOp44
 70
     0
102
RTVSPropertyOp45
 70
     0
102
RTVSPropertyOp46
 70
     0
102
RTVSPropertyOp47
 70
     0
102
RTVSPropertyOp48
 70
     0
102
RTVSPropertyOp49
 70
     0
102
RTVSPropertyOp50
 70
     0
102
RTVSPropertyOp51
 70
     0
102
RTVSPropertyOp52
 70
     0
102
RTVSPropertyOp53
 70
     0
102
RTVSPropertyOp54
 70
     0
102
RTVSPropertyOp55
 70
     0
102
RTVSPropertyOp56
 70
     0
102
RTVSPropertyOp57
 70
     0
102
RTVSPost2010Prop28
280
     0
102
RTVSPost2010PropOp28
 70
     0
102
RTVSPost2010Prop29
280
     1
102
RTVSPost2010PropOp29
 70
     0
102
RTVSPost2010Prop30
280
     1
102
RTVSPost2010PropOp30
 70
     0
102
RTVSPost2010Prop31
280
     0
102
RTVSPost2010PropOp31
 70
     0
102
RTVSPost2010Prop32
280
     0
102
RTVSPost2010PropOp32
 70
     0
102
RTVSPost2010Prop33
280
     0
102
RTVSPost2010PropOp33
 70
     0
102
RTVSPost2010Prop34
280
     0
102
RTVSPost2010PropOp34
 70
     0
102
RTVSPost2010Prop35
280
     0
102
RTVSPost2010PropOp35
 70
     0
102
RTVSPost2010Prop36
280
     0
102
RTVSPost2010PropOp36
 70
     0
102
RTVSPost2010Prop37
 90
       50
102
RTVSPost2010PropOp37
 70
     0
102
RTVSPost2010Prop38
140
0.0
102
RTVSPost2010PropOp38
 70
     0
102
RTVSPost2010Prop39
140
1.0
102
RTVSPost2010PropOp39
 70
     0
102
RTVSPost2010Prop40
 90
        0
102
RTVSPost2010PropOp40
 70
     0
102
RTVSPost2010Prop41ColorIndex
 90
      178
102
RTVSPost2010Prop41ColorRGB
 90
        0
102
RTVSPost2010PropOp41
 70
     0
102
RTVSPost2010Prop42
 90
       50
102
RTVSPost2010PropOp42
 70
     0
102
RTVSPost2010Prop43
 90
        3
102
RTVSPost2010PropOp43
 70
     0
102
RTVSPost2010Prop44ColorIndex
 90
        5
102
RTVSPost2010Prop44ColorRGB
 90
      255
102
RTVSPost2010PropOp44
 70
     0
102
RTVSPost2010Prop45
280
     0
102
RTVSPost2010PropOp45
 70
     0
102
RTVSPost2010Prop46
 90
       50
102
RTVSPost2010PropOp46
 70
     0
102
RTVSPost2010Prop47
 90
       50
102
RTVSPost2010PropOp47
 70
     0
102
RTVSPost2010Prop48
 90
       50
102
RTVSPost2010PropOp48
 70
     0
102
RTVSPost2010Prop49
280
     0
102
RTVSPost2010PropOp49
 70
     0
102
RTVSPost2010Prop50
 90
       50
102
RTVSPost2010PropOp50
 70
     0
102
RTVSPost2010Prop51ColorIndex
 90
      256
102
RTVSPost2010Prop51ColorRGB
 90
-16777216
102
RTVSPost2010PropOp51
 70
     0
102
RTVSPost2010Prop52
140
1.0
102
RTVSPost2010PropOp52
 70
     0
102
RTVSPost2010Prop53
 90
        2
102
RTVSPost2010PropOp53
 70
     0
102
RTVSPost2010Prop54
  1
strokes_ogs.tif
102
RTVSPost2010PropOp54
 70
     0
102
RTVSPost2010Prop55
280
     0
102
RTVSPost2010PropOp55
 70
     0
102
RTVSPost2010Prop56
140
1.0
102
RTVSPost2010PropOp56
 70
     0
102
RTVSPost2010Prop57
140
1.0
102
RTVSPost2010PropOp57
 70
     0
  0
XRECORD
  5
32A
102
{ACAD_REACTORS
330
329
102
}
330
329
100
AcDbXrecord
280
     1
102
RTVSPropertyOp0
 70
     1
102
RTVSPropertyOp1
 70
     1
102
RTVSPropertyOp2
 70
     1
102
RTVSPropertyOp3
 70
     1
102
RTVSPropertyOp4
 70
     1
102
RTVSPropertyOp5
 70
     1
102
RTVSPropertyOp6
 70
     1
102
RTVSPropertyOp7
 70
     1
102
RTVSPropertyOp8
 70
     1
102
RTVSPropertyOp9
 70
     1
102
RTVSPropertyOp10
 70
     1
102
RTVSPropertyOp11
 70
     1
102
RTVSPropertyOp12
 70
     1
102
RTVSPropertyOp13
 70
     1
102
RTVSPropertyOp14
 70
     1
102
RTVSPropertyOp15
 70
     1
102
RTVSPropertyOp16
 70
     1
102
RTVSPropertyOp17
 70
     1
102
RTVSPropertyOp18
 70
     1
102
RTVSPropertyOp19
 70
     1
102
RTVSPropertyOp20
 70
     1
102
RTVSPropertyOp21
 70
     1
102
RTVSPropertyOp22
 70
     1
102
RTVSPropertyOp23
 70
     1
102
RTVSPropertyOp24
 70
     1
102
RTVSPropertyOp25
 70
     1
102
RTVSPropertyOp26
 70
     1
102
RTVSPropertyOp27
 70
     1
102
RTVSPropertyOp28
 70
     1
102
RTVSPropertyOp29
 70
     1
102
RTVSPropertyOp30
 70
     1
102
RTVSPropertyOp31
 70
     1
102
RTVSPropertyOp32
 70
     1
102
RTVSPropertyOp33
 70
     1
102
RTVSPropertyOp34
 70
     1
102
RTVSPropertyOp35
 70
     1
102
RTVSPropertyOp36
 70
     1
102
RTVSPropertyOp37
 70
     1
102
RTVSPropertyOp38
 70
     1
102
RTVSPropertyOp39
 70
     1
102
RTVSPropertyOp40
 70
     1
102
RTVSPropertyOp41
 70
     1
102
RTVSPropertyOp42
 70
     1
102
RTVSPropertyOp43
 70
     1
102
RTVSPropertyOp44
 70
     1
102
RTVSPropertyOp45
 70
     1
102
RTVSPropertyOp46
 70
     1
102
RTVSPropertyOp47
 70
     1
102
RTVSPropertyOp48
 70
     1
102
RTVSPropertyOp49
 70
     1
102
RTVSPropertyOp50
 70
     1
102
RTVSPropertyOp51
 70
     0
102
RTVSPropertyOp52
 70
     0
102
RTVSPropertyOp53
 70
     1
102
RTVSPropertyOp54
 70
     1
102
RTVSPropertyOp55
 70
     1
102
RTVSPropertyOp56
 70
     1
102
RTVSPropertyOp57
 70
     1
102
RTVSPost2010Prop28
280
     0
102
RTVSPost2010PropOp28
 70
     1
102
RTVSPost2010Prop29
280
     1
102
RTVSPost2010PropOp29
 70
     1
102
RTVSPost2010Prop30
280
     1
102
RTVSPost2010PropOp30
 70
     1
102
RTVSPost2010Prop31
280
     0
102
RTVSPost2010PropOp31
 70
     1
102
RTVSPost2010Prop32
280
     0
102
RTVSPost2010PropOp32
 70
     1
102
RTVSPost2010Prop33
280
     0
102
RTVSPost2010PropOp33
 70
     1
102
RTVSPost2010Prop34
280
     0
102
RTVSPost2010PropOp34
 70
     1
102
RTVSPost2010Prop35
280
     0
102
RTVSPost2010PropOp35
 70
     1
102
RTVSPost2010Prop36
280
     0
102
RTVSPost2010PropOp36
 70
     1
102
RTVSPost2010Prop37
 90
       50
102
RTVSPost2010PropOp37
 70
     1
102
RTVSPost2010Prop38
140
0.0
102
RTVSPost2010PropOp38
 70
     1
102
RTVSPost2010Prop39
140
1.0
102
RTVSPost2010PropOp39
 70
     1
102
RTVSPost2010Prop40
 90
        0
102
RTVSPost2010PropOp40
 70
     1
102
RTVSPost2010Prop41ColorIndex
 90
      178
102
RTVSPost2010Prop41ColorRGB
 90
        0
102
RTVSPost2010PropOp41
 70
     1
102
RTVSPost2010Prop42
 90
       50
102
RTVSPost2010PropOp42
 70
     1
102
RTVSPost2010Prop43
 90
        3
102
RTVSPost2010PropOp43
 70
     1
102
RTVSPost2010Prop44ColorIndex
 90
        5
102
RTVSPost2010Prop44ColorRGB
 90
      255
102
RTVSPost2010PropOp44
 70
     1
102
RTVSPost2010Prop45
280
     0
102
RTVSPost2010PropOp45
 70
     1
102
RTVSPost2010Prop46
 90
       50
102
RTVSPost2010PropOp46
 70
     1
102
RTVSPost2010Prop47
 90
       50
102
RTVSPost2010PropOp47
 70
     1
102
RTVSPost2010Prop48
 90
       50
102
RTVSPost2010PropOp48
 70
     1
102
RTVSPost2010Prop49
280
     0
102
RTVSPost2010PropOp49
 70
     1
102
RTVSPost2010Prop50
 90
       50
102
RTVSPost2010PropOp50
 70
     1
102
RTVSPost2010Prop51ColorIndex
 90
      256
102
RTVSPost2010Prop51ColorRGB
 90
-16777216
102
RTVSPost2010PropOp51
 70
     0
102
RTVSPost2010Prop52
140
1.0
102
RTVSPost2010PropOp52
 70
     0
102
RTVSPost2010Prop53
 90
        2
102
RTVSPost2010PropOp53
 70
     1
102
RTVSPost2010Prop54
  1
strokes_ogs.tif
102
RTVSPost2010PropOp54
 70
     1
102
RTVSPost2010Prop55
280
     0
102
RTVSPost2010PropOp55
 70
     1
102
RTVSPost2010Prop56
140
1.0
102
RTVSPost2010PropOp56
 70
     1
102
RTVSPost2010Prop57
140
1.0
102
RTVSPost2010PropOp57
 70
     1
  0
XRECORD
  5
332
102
{ACAD_REACTORS
330
331
102
}
330
331
100
AcDbXrecord
280
     1
102
RTVSPropertyOp0
 70
     0
102
RTVSPropertyOp1
 70
     0
102
RTVSPropertyOp2
 70
     0
102
RTVSPropertyOp3
 70
     0
102
RTVSPropertyOp4
 70
     0
102
RTVSPropertyOp5
 70
     0
102
RTVSPropertyOp6
 70
     0
102
RTVSPropertyOp7
 70
     0
102
RTVSPropertyOp8
 70
     0
102
RTVSPropertyOp9
 70
     0
102
RTVSPropertyOp10
 70
     0
102
RTVSPropertyOp11
 70
     0
102
RTVSPropertyOp12
 70
     0
102
RTVSPropertyOp13
 70
     0
102
RTVSPropertyOp14
 70
     2
102
RTVSPropertyOp15
 70
     0
102
RTVSPropertyOp16
 70
     0
102
RTVSPropertyOp17
 70
     0
102
RTVSPropertyOp18
 70
     0
102
RTVSPropertyOp19
 70
     0
102
RTVSPropertyOp20
 70
     0
102
RTVSPropertyOp21
 70
     0
102
RTVSPropertyOp22
 70
     0
102
RTVSPropertyOp23
 70
     0
102
RTVSPropertyOp24
 70
     0
102
RTVSPropertyOp25
 70
     0
102
RTVSPropertyOp26
 70
     0
102
RTVSPropertyOp27
 70
     0
102
RTVSPropertyOp28
 70
     0
102
RTVSPropertyOp29
 70
     0
102
RTVSPropertyOp30
 70
     0
102
RTVSPropertyOp31
 70
     0
102
RTVSPropertyOp32
 70
     0
102
RTVSPropertyOp33
 70
     0
102
RTVSPropertyOp34
 70
     0
102
RTVSPropertyOp35
 70
     0
102
RTVSPropertyOp36
 70
     0
102
RTVSPropertyOp37
 70
     0
102
RTVSPropertyOp38
 70
     0
102
RTVSPropertyOp39
 70
     0
102
RTVSPropertyOp40
 70
     0
102
RTVSPropertyOp41
 70
     0
102
RTVSPropertyOp42
 70
     0
102
RTVSPropertyOp43
 70
     0
102
RTVSPropertyOp44
 70
     0
102
RTVSPropertyOp45
 70
     0
102
RTVSPropertyOp46
 70
     0
102
RTVSPropertyOp47
 70
     0
102
RTVSPropertyOp48
 70
     0
102
RTVSPropertyOp49
 70
     0
102
RTVSPropertyOp50
 70
     0
102
RTVSPropertyOp51
 70
     0
102
RTVSPropertyOp52
 70
     0
102
RTVSPropertyOp53
 70
     0
102
RTVSPropertyOp54
 70
     0
102
RTVSPropertyOp55
 70
     0
102
RTVSPropertyOp56
 70
     0
102
RTVSPropertyOp57
 70
     0
102
RTVSPost2010Prop28
280
     0
102
RTVSPost2010PropOp28
 70
     0
102
RTVSPost2010Prop29
280
     1
102
RTVSPost2010PropOp29
 70
     0
102
RTVSPost2010Prop30
280
     1
102
RTVSPost2010PropOp30
 70
     0
102
RTVSPost2010Prop31
280
     0
102
RTVSPost2010PropOp31
 70
     0
102
RTVSPost2010Prop32
280
     0
102
RTVSPost2010PropOp32
 70
     0
102
RTVSPost2010Prop33
280
     0
102
RTVSPost2010PropOp33
 70
     0
102
RTVSPost2010Prop34
280
     0
102
RTVSPost2010PropOp34
 70
     0
102
RTVSPost2010Prop35
280
     0
102
RTVSPost2010PropOp35
 70
     0
102
RTVSPost2010Prop36
280
     0
102
RTVSPost2010PropOp36
 70
     0
102
RTVSPost2010Prop37
 90
       50
102
RTVSPost2010PropOp37
 70
     0
102
RTVSPost2010Prop38
140
0.0
102
RTVSPost2010PropOp38
 70
     0
102
RTVSPost2010Prop39
140
1.0
102
RTVSPost2010PropOp39
 70
     0
102
RTVSPost2010Prop40
 90
        0
102
RTVSPost2010PropOp40
 70
     0
102
RTVSPost2010Prop41ColorIndex
 90
      178
102
RTVSPost2010Prop41ColorRGB
 90
        0
102
RTVSPost2010PropOp41
 70
     0
102
RTVSPost2010Prop42
 90
       50
102
RTVSPost2010PropOp42
 70
     0
102
RTVSPost2010Prop43
 90
        3
102
RTVSPost2010PropOp43
 70
     0
102
RTVSPost2010Prop44ColorIndex
 90
        5
102
RTVSPost2010Prop44ColorRGB
 90
      255
102
RTVSPost2010PropOp44
 70
     0
102
RTVSPost2010Prop45
280
     0
102
RTVSPost2010PropOp45
 70
     0
102
RTVSPost2010Prop46
 90
       50
102
RTVSPost2010PropOp46
 70
     0
102
RTVSPost2010Prop47
 90
       50
102
RTVSPost2010PropOp47
 70
     0
102
RTVSPost2010Prop48
 90
       50
102
RTVSPost2010PropOp48
 70
     0
102
RTVSPost2010Prop49
280
     0
102
RTVSPost2010PropOp49
 70
     0
102
RTVSPost2010Prop50
 90
       50
102
RTVSPost2010PropOp50
 70
     0
102
RTVSPost2010Prop51ColorIndex
 90
      256
102
RTVSPost2010Prop51ColorRGB
 90
-16777216
102
RTVSPost2010PropOp51
 70
     0
102
RTVSPost2010Prop52
140
1.0
102
RTVSPost2010PropOp52
 70
     0
102
RTVSPost2010Prop53
 90
        2
102
RTVSPost2010PropOp53
 70
     0
102
RTVSPost2010Prop54
  1
strokes_ogs.tif
102
RTVSPost2010PropOp54
 70
     0
102
RTVSPost2010Prop55
280
     0
102
RTVSPost2010PropOp55
 70
     0
102
RTVSPost2010Prop56
140
1.0
102
RTVSPost2010PropOp56
 70
     0
102
RTVSPost2010Prop57
140
1.0
102
RTVSPost2010PropOp57
 70
     0
  0
XRECORD
  5
320
102
{ACAD_REACTORS
330
31F
102
}
330
31F
100
AcDbXrecord
280
     1
102
RTVSPropertyOp0
 70
     1
102
RTVSPropertyOp1
 70
     1
102
RTVSPropertyOp2
 70
     1
102
RTVSPropertyOp3
 70
     1
102
RTVSPropertyOp4
 70
     1
102
RTVSPropertyOp5
 70
     1
102
RTVSPropertyOp6
 70
     1
102
RTVSPropertyOp7
 70
     1
102
RTVSPropertyOp8
 70
     1
102
RTVSPropertyOp9
 70
     1
102
RTVSPropertyOp10
 70
     1
102
RTVSPropertyOp11
 70
     1
102
RTVSPropertyOp12
 70
     1
102
RTVSPropertyOp13
 70
     1
102
RTVSPropertyOp14
 70
     1
102
RTVSPropertyOp15
 70
     1
102
RTVSPropertyOp16
 70
     1
102
RTVSPropertyOp17
 70
     1
102
RTVSPropertyOp18
 70
     1
102
RTVSPropertyOp19
 70
     1
102
RTVSPropertyOp20
 70
     1
102
RTVSPropertyOp21
 70
     1
102
RTVSPropertyOp22
 70
     1
102
RTVSPropertyOp23
 70
     1
102
RTVSPropertyOp24
 70
     1
102
RTVSPropertyOp25
 70
     1
102
RTVSPropertyOp26
 70
     1
102
RTVSPropertyOp27
 70
     1
102
RTVSPropertyOp28
 70
     1
102
RTVSPropertyOp29
 70
     1
102
RTVSPropertyOp30
 70
     1
102
RTVSPropertyOp31
 70
     1
102
RTVSPropertyOp32
 70
     1
102
RTVSPropertyOp33
 70
     1
102
RTVSPropertyOp34
 70
     1
102
RTVSPropertyOp35
 70
     1
102
RTVSPropertyOp36
 70
     1
102
RTVSPropertyOp37
 70
     1
102
RTVSPropertyOp38
 70
     1
102
RTVSPropertyOp39
 70
     1
102
RTVSPropertyOp40
 70
     1
102
RTVSPropertyOp41
 70
     1
102
RTVSPropertyOp42
 70
     1
102
RTVSPropertyOp43
 70
     1
102
RTVSPropertyOp44
 70
     1
102
RTVSPropertyOp45
 70
     1
102
RTVSPropertyOp46
 70
     1
102
RTVSPropertyOp47
 70
     1
102
RTVSPropertyOp48
 70
     1
102
RTVSPropertyOp49
 70
     1
102
RTVSPropertyOp50
 70
     1
102
RTVSPropertyOp51
 70
     0
102
RTVSPropertyOp52
 70
     0
102
RTVSPropertyOp53
 70
     1
102
RTVSPropertyOp54
 70
     1
102
RTVSPropertyOp55
 70
     1
102
RTVSPropertyOp56
 70
     1
102
RTVSPropertyOp57
 70
     1
102
RTVSPost2010Prop28
280
     0
102
RTVSPost2010PropOp28
 70
     1
102
RTVSPost2010Prop29
280
     1
102
RTVSPost2010PropOp29
 70
     1
102
RTVSPost2010Prop30
280
     1
102
RTVSPost2010PropOp30
 70
     1
102
RTVSPost2010Prop31
280
     0
102
RTVSPost2010PropOp31
 70
     1
102
RTVSPost2010Prop32
280
     0
102
RTVSPost2010PropOp32
 70
     1
102
RTVSPost2010Prop33
280
     0
102
RTVSPost2010PropOp33
 70
     1
102
RTVSPost2010Prop34
280
     0
102
RTVSPost2010PropOp34
 70
     1
102
RTVSPost2010Prop35
280
     0
102
RTVSPost2010PropOp35
 70
     1
102
RTVSPost2010Prop36
280
     0
102
RTVSPost2010PropOp36
 70
     1
102
RTVSPost2010Prop37
 90
       50
102
RTVSPost2010PropOp37
 70
     1
102
RTVSPost2010Prop38
140
0.0
102
RTVSPost2010PropOp38
 70
     1
102
RTVSPost2010Prop39
140
1.0
102
RTVSPost2010PropOp39
 70
     1
102
RTVSPost2010Prop40
 90
        0
102
RTVSPost2010PropOp40
 70
     1
102
RTVSPost2010Prop41ColorIndex
 90
      178
102
RTVSPost2010Prop41ColorRGB
 90
        0
102
RTVSPost2010PropOp41
 70
     1
102
RTVSPost2010Prop42
 90
       50
102
RTVSPost2010PropOp42
 70
     1
102
RTVSPost2010Prop43
 90
        3
102
RTVSPost2010PropOp43
 70
     1
102
RTVSPost2010Prop44ColorIndex
 90
        5
102
RTVSPost2010Prop44ColorRGB
 90
      255
102
RTVSPost2010PropOp44
 70
     1
102
RTVSPost2010Prop45
280
     0
102
RTVSPost2010PropOp45
 70
     1
102
RTVSPost2010Prop46
 90
       50
102
RTVSPost2010PropOp46
 70
     1
102
RTVSPost2010Prop47
 90
       50
102
RTVSPost2010PropOp47
 70
     1
102
RTVSPost2010Prop48
 90
       50
102
RTVSPost2010PropOp48
 70
     1
102
RTVSPost2010Prop49
280
     0
102
RTVSPost2010PropOp49
 70
     1
102
RTVSPost2010Prop50
 90
       50
102
RTVSPost2010PropOp50
 70
     1
102
RTVSPost2010Prop51ColorIndex
 90
      256
102
RTVSPost2010Prop51ColorRGB
 90
-16777216
102
RTVSPost2010PropOp51
 70
     0
102
RTVSPost2010Prop52
140
1.0
102
RTVSPost2010PropOp52
 70
     0
102
RTVSPost2010Prop53
 90
        2
102
RTVSPost2010PropOp53
 70
     1
102
RTVSPost2010Prop54
  1
strokes_ogs.tif
102
RTVSPost2010PropOp54
 70
     1
102
RTVSPost2010Prop55
280
     0
102
RTVSPost2010PropOp55
 70
     1
102
RTVSPost2010Prop56
140
1.0
102
RTVSPost2010PropOp56
 70
     1
102
RTVSPost2010Prop57
140
1.0
102
RTVSPost2010PropOp57
 70
     1
  0
XRECORD
  5
33E
102
{ACAD_REACTORS
330
33D
102
}
330
33D
100
AcDbXrecord
280
     1
102
RTVSPropertyOp0
 70
     1
102
RTVSPropertyOp1
 70
     1
102
RTVSPropertyOp2
 70
     1
102
RTVSPropertyOp3
 70
     1
102
RTVSPropertyOp4
 70
     1
102
RTVSPropertyOp5
 70
     1
102
RTVSPropertyOp6
 70
     1
102
RTVSPropertyOp7
 70
     1
102
RTVSPropertyOp8
 70
     1
102
RTVSPropertyOp9
 70
     1
102
RTVSPropertyOp10
 70
     1
102
RTVSPropertyOp11
 70
     1
102
RTVSPropertyOp12
 70
     1
102
RTVSPropertyOp13
 70
     1
102
RTVSPropertyOp14
 70
     1
102
RTVSPropertyOp15
 70
     1
102
RTVSPropertyOp16
 70
     1
102
RTVSPropertyOp17
 70
     1
102
RTVSPropertyOp18
 70
     1
102
RTVSPropertyOp19
 70
     1
102
RTVSPropertyOp20
 70
     1
102
RTVSPropertyOp21
 70
     1
102
RTVSPropertyOp22
 70
     1
102
RTVSPropertyOp23
 70
     1
102
RTVSPropertyOp24
 70
     1
102
RTVSPropertyOp25
 70
     1
102
RTVSPropertyOp26
 70
     1
102
RTVSPropertyOp27
 70
     1
102
RTVSPropertyOp28
 70
     1
102
RTVSPropertyOp29
 70
     1
102
RTVSPropertyOp30
 70
     1
102
RTVSPropertyOp31
 70
     1
102
RTVSPropertyOp32
 70
     1
102
RTVSPropertyOp33
 70
     1
102
RTVSPropertyOp34
 70
     1
102
RTVSPropertyOp35
 70
     1
102
RTVSPropertyOp36
 70
     1
102
RTVSPropertyOp37
 70
     1
102
RTVSPropertyOp38
 70
     1
102
RTVSPropertyOp39
 70
     1
102
RTVSPropertyOp40
 70
     1
102
RTVSPropertyOp41
 70
     1
102
RTVSPropertyOp42
 70
     1
102
RTVSPropertyOp43
 70
     1
102
RTVSPropertyOp44
 70
     1
102
RTVSPropertyOp45
 70
     1
102
RTVSPropertyOp46
 70
     1
102
RTVSPropertyOp47
 70
     1
102
RTVSPropertyOp48
 70
     1
102
RTVSPropertyOp49
 70
     1
102
RTVSPropertyOp50
 70
     1
102
RTVSPropertyOp51
 70
     0
102
RTVSPropertyOp52
 70
     0
102
RTVSPropertyOp53
 70
     1
102
RTVSPropertyOp54
 70
     1
102
RTVSPropertyOp55
 70
     1
102
RTVSPropertyOp56
 70
     1
102
RTVSPropertyOp57
 70
     1
102
RTVSPost2010Prop28
280
     0
102
RTVSPost2010PropOp28
 70
     1
102
RTVSPost2010Prop29
280
     1
102
RTVSPost2010PropOp29
 70
     1
102
RTVSPost2010Prop30
280
     1
102
RTVSPost2010PropOp30
 70
     1
102
RTVSPost2010Prop31
280
     0
102
RTVSPost2010PropOp31
 70
     1
102
RTVSPost2010Prop32
280
     0
102
RTVSPost2010PropOp32
 70
     1
102
RTVSPost2010Prop33
280
     0
102
RTVSPost2010PropOp33
 70
     1
102
RTVSPost2010Prop34
280
     0
102
RTVSPost2010PropOp34
 70
     1
102
RTVSPost2010Prop35
280
     0
102
RTVSPost2010PropOp35
 70
     1
102
RTVSPost2010Prop36
280
     0
102
RTVSPost2010PropOp36
 70
     1
102
RTVSPost2010Prop37
 90
       50
102
RTVSPost2010PropOp37
 70
     1
102
RTVSPost2010Prop38
140
0.0
102
RTVSPost2010PropOp38
 70
     1
102
RTVSPost2010Prop39
140
1.0
102
RTVSPost2010PropOp39
 70
     1
102
RTVSPost2010Prop40
 90
        0
102
RTVSPost2010PropOp40
 70
     1
102
RTVSPost2010Prop41ColorIndex
 90
      178
102
RTVSPost2010Prop41ColorRGB
 90
        0
102
RTVSPost2010PropOp41
 70
     1
102
RTVSPost2010Prop42
 90
       50
102
RTVSPost2010PropOp42
 70
     1
102
RTVSPost2010Prop43
 90
        3
102
RTVSPost2010PropOp43
 70
     1
102
RTVSPost2010Prop44ColorIndex
 90
        5
102
RTVSPost2010Prop44ColorRGB
 90
      255
102
RTVSPost2010PropOp44
 70
     1
102
RTVSPost2010Prop45
280
     0
102
RTVSPost2010PropOp45
 70
     1
102
RTVSPost2010Prop46
 90
       50
102
RTVSPost2010PropOp46
 70
     1
102
RTVSPost2010Prop47
 90
       50
102
RTVSPost2010PropOp47
 70
     1
102
RTVSPost2010Prop48
 90
       50
102
RTVSPost2010PropOp48
 70
     1
102
RTVSPost2010Prop49
280
     0
102
RTVSPost2010PropOp49
 70
     1
102
RTVSPost2010Prop50
 90
       50
102
RTVSPost2010PropOp50
 70
     1
102
RTVSPost2010Prop51ColorIndex
 90
      256
102
RTVSPost2010Prop51ColorRGB
 90
-16777216
102
RTVSPost2010PropOp51
 70
     0
102
RTVSPost2010Prop52
140
1.0
102
RTVSPost2010PropOp52
 70
     0
102
RTVSPost2010Prop53
 90
        2
102
RTVSPost2010PropOp53
 70
     1
102
RTVSPost2010Prop54
  1
strokes_ogs.tif
102
RTVSPost2010PropOp54
 70
     1
102
RTVSPost2010Prop55
280
     0
102
RTVSPost2010PropOp55
 70
     1
102
RTVSPost2010Prop56
140
1.0
102
RTVSPost2010PropOp56
 70
     1
102
RTVSPost2010Prop57
140
1.0
102
RTVSPost2010PropOp57
 70
     1
  0
XRECORD
  5
33C
102
{ACAD_REACTORS
330
33B
102
}
330
33B
100
AcDbXrecord
280
     1
102
RTVSPropertyOp0
 70
     1
102
RTVSPropertyOp1
 70
     1
102
RTVSPropertyOp2
 70
     1
102
RTVSPropertyOp3
 70
     1
102
RTVSPropertyOp4
 70
     1
102
RTVSPropertyOp5
 70
     1
102
RTVSPropertyOp6
 70
     1
102
RTVSPropertyOp7
 70
     1
102
RTVSPropertyOp8
 70
     1
102
RTVSPropertyOp9
 70
     1
102
RTVSPropertyOp10
 70
     1
102
RTVSPropertyOp11
 70
     1
102
RTVSPropertyOp12
 70
     1
102
RTVSPropertyOp13
 70
     1
102
RTVSPropertyOp14
 70
     1
102
RTVSPropertyOp15
 70
     1
102
RTVSPropertyOp16
 70
     1
102
RTVSPropertyOp17
 70
     1
102
RTVSPropertyOp18
 70
     1
102
RTVSPropertyOp19
 70
     1
102
RTVSPropertyOp20
 70
     1
102
RTVSPropertyOp21
 70
     1
102
RTVSPropertyOp22
 70
     1
102
RTVSPropertyOp23
 70
     1
102
RTVSPropertyOp24
 70
     1
102
RTVSPropertyOp25
 70
     1
102
RTVSPropertyOp26
 70
     1
102
RTVSPropertyOp27
 70
     1
102
RTVSPropertyOp28
 70
     1
102
RTVSPropertyOp29
 70
     1
102
RTVSPropertyOp30
 70
     1
102
RTVSPropertyOp31
 70
     1
102
RTVSPropertyOp32
 70
     1
102
RTVSPropertyOp33
 70
     1
102
RTVSPropertyOp34
 70
     1
102
RTVSPropertyOp35
 70
     1
102
RTVSPropertyOp36
 70
     1
102
RTVSPropertyOp37
 70
     1
102
RTVSPropertyOp38
 70
     1
102
RTVSPropertyOp39
 70
     1
102
RTVSPropertyOp40
 70
     1
102
RTVSPropertyOp41
 70
     1
102
RTVSPropertyOp42
 70
     1
102
RTVSPropertyOp43
 70
     1
102
RTVSPropertyOp44
 70
     1
102
RTVSPropertyOp45
 70
     1
102
RTVSPropertyOp46
 70
     1
102
RTVSPropertyOp47
 70
     1
102
RTVSPropertyOp48
 70
     1
102
RTVSPropertyOp49
 70
     1
102
RTVSPropertyOp50
 70
     1
102
RTVSPropertyOp51
 70
     0
102
RTVSPropertyOp52
 70
     0
102
RTVSPropertyOp53
 70
     1
102
RTVSPropertyOp54
 70
     1
102
RTVSPropertyOp55
 70
     1
102
RTVSPropertyOp56
 70
     1
102
RTVSPropertyOp57
 70
     1
102
RTVSPost2010Prop28
280
     0
102
RTVSPost2010PropOp28
 70
     1
102
RTVSPost2010Prop29
280
     1
102
RTVSPost2010PropOp29
 70
     1
102
RTVSPost2010Prop30
280
     1
102
RTVSPost2010PropOp30
 70
     1
102
RTVSPost2010Prop31
280
     0
102
RTVSPost2010PropOp31
 70
     1
102
RTVSPost2010Prop32
280
     0
102
RTVSPost2010PropOp32
 70
     1
102
RTVSPost2010Prop33
280
     0
102
RTVSPost2010PropOp33
 70
     1
102
RTVSPost2010Prop34
280
     0
102
RTVSPost2010PropOp34
 70
     1
102
RTVSPost2010Prop35
280
     0
102
RTVSPost2010PropOp35
 70
     1
102
RTVSPost2010Prop36
280
     0
102
RTVSPost2010PropOp36
 70
     1
102
RTVSPost2010Prop37
 90
       50
102
RTVSPost2010PropOp37
 70
     1
102
RTVSPost2010Prop38
140
0.0
102
RTVSPost2010PropOp38
 70
     1
102
RTVSPost2010Prop39
140
1.0
102
RTVSPost2010PropOp39
 70
     1
102
RTVSPost2010Prop40
 90
        0
102
RTVSPost2010PropOp40
 70
     1
102
RTVSPost2010Prop41ColorIndex
 90
      178
102
RTVSPost2010Prop41ColorRGB
 90
        0
102
RTVSPost2010PropOp41
 70
     1
102
RTVSPost2010Prop42
 90
       50
102
RTVSPost2010PropOp42
 70
     1
102
RTVSPost2010Prop43
 90
        3
102
RTVSPost2010PropOp43
 70
     1
102
RTVSPost2010Prop44ColorIndex
 90
        5
102
RTVSPost2010Prop44ColorRGB
 90
      255
102
RTVSPost2010PropOp44
 70
     1
102
RTVSPost2010Prop45
280
     0
102
RTVSPost2010PropOp45
 70
     1
102
RTVSPost2010Prop46
 90
       50
102
RTVSPost2010PropOp46
 70
     1
102
RTVSPost2010Prop47
 90
       50
102
RTVSPost2010PropOp47
 70
     1
102
RTVSPost2010Prop48
 90
       50
102
RTVSPost2010PropOp48
 70
     1
102
RTVSPost2010Prop49
280
     0
102
RTVSPost2010PropOp49
 70
     1
102
RTVSPost2010Prop50
 90
       50
102
RTVSPost2010PropOp50
 70
     1
102
RTVSPost2010Prop51ColorIndex
 90
      256
102
RTVSPost2010Prop51ColorRGB
 90
-16777216
102
RTVSPost2010PropOp51
 70
     0
102
RTVSPost2010Prop52
140
1.0
102
RTVSPost2010PropOp52
 70
     0
102
RTVSPost2010Prop53
 90
        2
102
RTVSPost2010PropOp53
 70
     1
102
RTVSPost2010Prop54
  1
strokes_ogs.tif
102
RTVSPost2010PropOp54
 70
     1
102
RTVSPost2010Prop55
280
     0
102
RTVSPost2010PropOp55
 70
     1
102
RTVSPost2010Prop56
140
1.0
102
RTVSPost2010PropOp56
 70
     1
102
RTVSPost2010Prop57
140
1.0
102
RTVSPost2010PropOp57
 70
     1
  0
XRECORD
  5
336
102
{ACAD_REACTORS
330
335
102
}
330
335
100
AcDbXrecord
280
     1
102
RTVSPropertyOp0
 70
     1
102
RTVSPropertyOp1
 70
     1
102
RTVSPropertyOp2
 70
     1
102
RTVSPropertyOp3
 70
     1
102
RTVSPropertyOp4
 70
     1
102
RTVSPropertyOp5
 70
     1
102
RTVSPropertyOp6
 70
     1
102
RTVSPropertyOp7
 70
     1
102
RTVSPropertyOp8
 70
     1
102
RTVSPropertyOp9
 70
     1
102
RTVSPropertyOp10
 70
     1
102
RTVSPropertyOp11
 70
     1
102
RTVSPropertyOp12
 70
     1
102
RTVSPropertyOp13
 70
     1
102
RTVSPropertyOp14
 70
     1
102
RTVSPropertyOp15
 70
     1
102
RTVSPropertyOp16
 70
     1
102
RTVSPropertyOp17
 70
     1
102
RTVSPropertyOp18
 70
     1
102
RTVSPropertyOp19
 70
     1
102
RTVSPropertyOp20
 70
     1
102
RTVSPropertyOp21
 70
     1
102
RTVSPropertyOp22
 70
     1
102
RTVSPropertyOp23
 70
     1
102
RTVSPropertyOp24
 70
     1
102
RTVSPropertyOp25
 70
     1
102
RTVSPropertyOp26
 70
     1
102
RTVSPropertyOp27
 70
     1
102
RTVSPropertyOp28
 70
     1
102
RTVSPropertyOp29
 70
     1
102
RTVSPropertyOp30
 70
     1
102
RTVSPropertyOp31
 70
     1
102
RTVSPropertyOp32
 70
     1
102
RTVSPropertyOp33
 70
     1
102
RTVSPropertyOp34
 70
     1
102
RTVSPropertyOp35
 70
     1
102
RTVSPropertyOp36
 70
     1
102
RTVSPropertyOp37
 70
     1
102
RTVSPropertyOp38
 70
     1
102
RTVSPropertyOp39
 70
     1
102
RTVSPropertyOp40
 70
     1
102
RTVSPropertyOp41
 70
     1
102
RTVSPropertyOp42
 70
     1
102
RTVSPropertyOp43
 70
     1
102
RTVSPropertyOp44
 70
     1
102
RTVSPropertyOp45
 70
     1
102
RTVSPropertyOp46
 70
     1
102
RTVSPropertyOp47
 70
     1
102
RTVSPropertyOp48
 70
     1
102
RTVSPropertyOp49
 70
     1
102
RTVSPropertyOp50
 70
     1
102
RTVSPropertyOp51
 70
     0
102
RTVSPropertyOp52
 70
     0
102
RTVSPropertyOp53
 70
     1
102
RTVSPropertyOp54
 70
     1
102
RTVSPropertyOp55
 70
     1
102
RTVSPropertyOp56
 70
     1
102
RTVSPropertyOp57
 70
     1
102
RTVSPost2010Prop28
280
     0
102
RTVSPost2010PropOp28
 70
     1
102
RTVSPost2010Prop29
280
     1
102
RTVSPost2010PropOp29
 70
     1
102
RTVSPost2010Prop30
280
     1
102
RTVSPost2010PropOp30
 70
     1
102
RTVSPost2010Prop31
280
     0
102
RTVSPost2010PropOp31
 70
     1
102
RTVSPost2010Prop32
280
     0
102
RTVSPost2010PropOp32
 70
     1
102
RTVSPost2010Prop33
280
     0
102
RTVSPost2010PropOp33
 70
     1
102
RTVSPost2010Prop34
280
     0
102
RTVSPost2010PropOp34
 70
     1
102
RTVSPost2010Prop35
280
     0
102
RTVSPost2010PropOp35
 70
     1
102
RTVSPost2010Prop36
280
     0
102
RTVSPost2010PropOp36
 70
     1
102
RTVSPost2010Prop37
 90
       50
102
RTVSPost2010PropOp37
 70
     1
102
RTVSPost2010Prop38
140
0.0
102
RTVSPost2010PropOp38
 70
     1
102
RTVSPost2010Prop39
140
1.0
102
RTVSPost2010PropOp39
 70
     1
102
RTVSPost2010Prop40
 90
        0
102
RTVSPost2010PropOp40
 70
     1
102
RTVSPost2010Prop41ColorIndex
 90
      178
102
RTVSPost2010Prop41ColorRGB
 90
        0
102
RTVSPost2010PropOp41
 70
     1
102
RTVSPost2010Prop42
 90
       50
102
RTVSPost2010PropOp42
 70
     1
102
RTVSPost2010Prop43
 90
        3
102
RTVSPost2010PropOp43
 70
     1
102
RTVSPost2010Prop44ColorIndex
 90
        5
102
RTVSPost2010Prop44ColorRGB
 90
      255
102
RTVSPost2010PropOp44
 70
     1
102
RTVSPost2010Prop45
280
     0
102
RTVSPost2010PropOp45
 70
     1
102
RTVSPost2010Prop46
 90
       50
102
RTVSPost2010PropOp46
 70
     1
102
RTVSPost2010Prop47
 90
       50
102
RTVSPost2010PropOp47
 70
     1
102
RTVSPost2010Prop48
 90
       50
102
RTVSPost2010PropOp48
 70
     1
102
RTVSPost2010Prop49
280
     0
102
RTVSPost2010PropOp49
 70
     1
102
RTVSPost2010Prop50
 90
       50
102
RTVSPost2010PropOp50
 70
     1
102
RTVSPost2010Prop51ColorIndex
 90
      256
102
RTVSPost2010Prop51ColorRGB
 90
-16777216
102
RTVSPost2010PropOp51
 70
     0
102
RTVSPost2010Prop52
140
1.0
102
RTVSPost2010PropOp52
 70
     0
102
RTVSPost2010Prop53
 90
        2
102
RTVSPost2010PropOp53
 70
     1
102
RTVSPost2010Prop54
  1
strokes_ogs.tif
102
RTVSPost2010PropOp54
 70
     1
102
RTVSPost2010Prop55
280
     0
102
RTVSPost2010PropOp55
 70
     1
102
RTVSPost2010Prop56
140
1.0
102
RTVSPost2010PropOp56
 70
     1
102
RTVSPost2010Prop57
140
1.0
102
RTVSPost2010PropOp57
 70
     1
  0
XRECORD
  5
338
102
{ACAD_REACTORS
330
337
102
}
330
337
100
AcDbXrecord
280
     1
102
RTVSPropertyOp0
 70
     1
102
RTVSPropertyOp1
 70
     1
102
RTVSPropertyOp2
 70
     1
102
RTVSPropertyOp3
 70
     1
102
RTVSPropertyOp4
 70
     1
102
RTVSPropertyOp5
 70
     1
102
RTVSPropertyOp6
 70
     1
102
RTVSPropertyOp7
 70
     1
102
RTVSPropertyOp8
 70
     1
102
RTVSPropertyOp9
 70
     1
102
RTVSPropertyOp10
 70
     1
102
RTVSPropertyOp11
 70
     1
102
RTVSPropertyOp12
 70
     1
102
RTVSPropertyOp13
 70
     1
102
RTVSPropertyOp14
 70
     1
102
RTVSPropertyOp15
 70
     1
102
RTVSPropertyOp16
 70
     1
102
RTVSPropertyOp17
 70
     1
102
RTVSPropertyOp18
 70
     1
102
RTVSPropertyOp19
 70
     1
102
RTVSPropertyOp20
 70
     1
102
RTVSPropertyOp21
 70
     1
102
RTVSPropertyOp22
 70
     1
102
RTVSPropertyOp23
 70
     1
102
RTVSPropertyOp24
 70
     1
102
RTVSPropertyOp25
 70
     1
102
RTVSPropertyOp26
 70
     1
102
RTVSPropertyOp27
 70
     1
102
RTVSPropertyOp28
 70
     1
102
RTVSPropertyOp29
 70
     1
102
RTVSPropertyOp30
 70
     1
102
RTVSPropertyOp31
 70
     1
102
RTVSPropertyOp32
 70
     1
102
RTVSPropertyOp33
 70
     1
102
RTVSPropertyOp34
 70
     1
102
RTVSPropertyOp35
 70
     1
102
RTVSPropertyOp36
 70
     1
102
RTVSPropertyOp37
 70
     1
102
RTVSPropertyOp38
 70
     1
102
RTVSPropertyOp39
 70
     1
102
RTVSPropertyOp40
 70
     1
102
RTVSPropertyOp41
 70
     1
102
RTVSPropertyOp42
 70
     1
102
RTVSPropertyOp43
 70
     1
102
RTVSPropertyOp44
 70
     1
102
RTVSPropertyOp45
 70
     1
102
RTVSPropertyOp46
 70
     1
102
RTVSPropertyOp47
 70
     1
102
RTVSPropertyOp48
 70
     1
102
RTVSPropertyOp49
 70
     1
102
RTVSPropertyOp50
 70
     1
102
RTVSPropertyOp51
 70
     0
102
RTVSPropertyOp52
 70
     0
102
RTVSPropertyOp53
 70
     1
102
RTVSPropertyOp54
 70
     1
102
RTVSPropertyOp55
 70
     1
102
RTVSPropertyOp56
 70
     1
102
RTVSPropertyOp57
 70
     1
102
RTVSPost2010Prop28
280
     0
102
RTVSPost2010PropOp28
 70
     1
102
RTVSPost2010Prop29
280
     1
102
RTVSPost2010PropOp29
 70
     1
102
RTVSPost2010Prop30
280
     1
102
RTVSPost2010PropOp30
 70
     1
102
RTVSPost2010Prop31
280
     0
102
RTVSPost2010PropOp31
 70
     1
102
RTVSPost2010Prop32
280
     0
102
RTVSPost2010PropOp32
 70
     1
102
RTVSPost2010Prop33
280
     0
102
RTVSPost2010PropOp33
 70
     1
102
RTVSPost2010Prop34
280
     0
102
RTVSPost2010PropOp34
 70
     1
102
RTVSPost2010Prop35
280
     0
102
RTVSPost2010PropOp35
 70
     1
102
RTVSPost2010Prop36
280
     0
102
RTVSPost2010PropOp36
 70
     1
102
RTVSPost2010Prop37
 90
       50
102
RTVSPost2010PropOp37
 70
     1
102
RTVSPost2010Prop38
140
0.0
102
RTVSPost2010PropOp38
 70
     1
102
RTVSPost2010Prop39
140
1.0
102
RTVSPost2010PropOp39
 70
     1
102
RTVSPost2010Prop40
 90
        0
102
RTVSPost2010PropOp40
 70
     1
102
RTVSPost2010Prop41ColorIndex
 90
      178
102
RTVSPost2010Prop41ColorRGB
 90
        0
102
RTVSPost2010PropOp41
 70
     1
102
RTVSPost2010Prop42
 90
       50
102
RTVSPost2010PropOp42
 70
     1
102
RTVSPost2010Prop43
 90
        3
102
RTVSPost2010PropOp43
 70
     1
102
RTVSPost2010Prop44ColorIndex
 90
        5
102
RTVSPost2010Prop44ColorRGB
 90
      255
102
RTVSPost2010PropOp44
 70
     1
102
RTVSPost2010Prop45
280
     0
102
RTVSPost2010PropOp45
 70
     1
102
RTVSPost2010Prop46
 90
       50
102
RTVSPost2010PropOp46
 70
     1
102
RTVSPost2010Prop47
 90
       50
102
RTVSPost2010PropOp47
 70
     1
102
RTVSPost2010Prop48
 90
       50
102
RTVSPost2010PropOp48
 70
     1
102
RTVSPost2010Prop49
280
     0
102
RTVSPost2010PropOp49
 70
     1
102
RTVSPost2010Prop50
 90
       50
102
RTVSPost2010PropOp50
 70
     1
102
RTVSPost2010Prop51ColorIndex
 90
      256
102
RTVSPost2010Prop51ColorRGB
 90
-16777216
102
RTVSPost2010PropOp51
 70
     0
102
RTVSPost2010Prop52
140
1.0
102
RTVSPost2010PropOp52
 70
     0
102
RTVSPost2010Prop53
 90
        2
102
RTVSPost2010PropOp53
 70
     1
102
RTVSPost2010Prop54
  1
strokes_ogs.tif
102
RTVSPost2010PropOp54
 70
     1
102
RTVSPost2010Prop55
280
     0
102
RTVSPost2010PropOp55
 70
     1
102
RTVSPost2010Prop56
140
1.0
102
RTVSPost2010PropOp56
 70
     1
102
RTVSPost2010Prop57
140
1.0
102
RTVSPost2010PropOp57
 70
     1
  0
XRECORD
  5
328
102
{ACAD_REACTORS
330
327
102
}
330
327
100
AcDbXrecord
280
     1
102
RTVSPropertyOp0
 70
     1
102
RTVSPropertyOp1
 70
     1
102
RTVSPropertyOp2
 70
     1
102
RTVSPropertyOp3
 70
     1
102
RTVSPropertyOp4
 70
     1
102
RTVSPropertyOp5
 70
     1
102
RTVSPropertyOp6
 70
     1
102
RTVSPropertyOp7
 70
     1
102
RTVSPropertyOp8
 70
     1
102
RTVSPropertyOp9
 70
     1
102
RTVSPropertyOp10
 70
     1
102
RTVSPropertyOp11
 70
     1
102
RTVSPropertyOp12
 70
     1
102
RTVSPropertyOp13
 70
     1
102
RTVSPropertyOp14
 70
     1
102
RTVSPropertyOp15
 70
     1
102
RTVSPropertyOp16
 70
     1
102
RTVSPropertyOp17
 70
     1
102
RTVSPropertyOp18
 70
     1
102
RTVSPropertyOp19
 70
     1
102
RTVSPropertyOp20
 70
     1
102
RTVSPropertyOp21
 70
     1
102
RTVSPropertyOp22
 70
     1
102
RTVSPropertyOp23
 70
     1
102
RTVSPropertyOp24
 70
     1
102
RTVSPropertyOp25
 70
     1
102
RTVSPropertyOp26
 70
     1
102
RTVSPropertyOp27
 70
     1
102
RTVSPropertyOp28
 70
     1
102
RTVSPropertyOp29
 70
     1
102
RTVSPropertyOp30
 70
     1
102
RTVSPropertyOp31
 70
     1
102
RTVSPropertyOp32
 70
     1
102
RTVSPropertyOp33
 70
     1
102
RTVSPropertyOp34
 70
     1
102
RTVSPropertyOp35
 70
     1
102
RTVSPropertyOp36
 70
     1
102
RTVSPropertyOp37
 70
     1
102
RTVSPropertyOp38
 70
     1
102
RTVSPropertyOp39
 70
     1
102
RTVSPropertyOp40
 70
     1
102
RTVSPropertyOp41
 70
     1
102
RTVSPropertyOp42
 70
     1
102
RTVSPropertyOp43
 70
     1
102
RTVSPropertyOp44
 70
     1
102
RTVSPropertyOp45
 70
     1
102
RTVSPropertyOp46
 70
     1
102
RTVSPropertyOp47
 70
     1
102
RTVSPropertyOp48
 70
     1
102
RTVSPropertyOp49
 70
     1
102
RTVSPropertyOp50
 70
     1
102
RTVSPropertyOp51
 70
     0
102
RTVSPropertyOp52
 70
     0
102
RTVSPropertyOp53
 70
     1
102
RTVSPropertyOp54
 70
     1
102
RTVSPropertyOp55
 70
     1
102
RTVSPropertyOp56
 70
     1
102
RTVSPropertyOp57
 70
     1
102
RTVSPost2010Prop28
280
     0
102
RTVSPost2010PropOp28
 70
     1
102
RTVSPost2010Prop29
280
     1
102
RTVSPost2010PropOp29
 70
     1
102
RTVSPost2010Prop30
280
     1
102
RTVSPost2010PropOp30
 70
     1
102
RTVSPost2010Prop31
280
     0
102
RTVSPost2010PropOp31
 70
     1
102
RTVSPost2010Prop32
280
     0
102
RTVSPost2010PropOp32
 70
     1
102
RTVSPost2010Prop33
280
     0
102
RTVSPost2010PropOp33
 70
     1
102
RTVSPost2010Prop34
280
     0
102
RTVSPost2010PropOp34
 70
     1
102
RTVSPost2010Prop35
280
     0
102
RTVSPost2010PropOp35
 70
     1
102
RTVSPost2010Prop36
280
     0
102
RTVSPost2010PropOp36
 70
     1
102
RTVSPost2010Prop37
 90
       50
102
RTVSPost2010PropOp37
 70
     1
102
RTVSPost2010Prop38
140
0.0
102
RTVSPost2010PropOp38
 70
     1
102
RTVSPost2010Prop39
140
1.0
102
RTVSPost2010PropOp39
 70
     1
102
RTVSPost2010Prop40
 90
        0
102
RTVSPost2010PropOp40
 70
     1
102
RTVSPost2010Prop41ColorIndex
 90
      178
102
RTVSPost2010Prop41ColorRGB
 90
        0
102
RTVSPost2010PropOp41
 70
     1
102
RTVSPost2010Prop42
 90
       50
102
RTVSPost2010PropOp42
 70
     1
102
RTVSPost2010Prop43
 90
        3
102
RTVSPost2010PropOp43
 70
     1
102
RTVSPost2010Prop44ColorIndex
 90
        5
102
RTVSPost2010Prop44ColorRGB
 90
      255
102
RTVSPost2010PropOp44
 70
     1
102
RTVSPost2010Prop45
280
     0
102
RTVSPost2010PropOp45
 70
     1
102
RTVSPost2010Prop46
 90
       50
102
RTVSPost2010PropOp46
 70
     1
102
RTVSPost2010Prop47
 90
       50
102
RTVSPost2010PropOp47
 70
     1
102
RTVSPost2010Prop48
 90
       50
102
RTVSPost2010PropOp48
 70
     1
102
RTVSPost2010Prop49
280
     0
102
RTVSPost2010PropOp49
 70
     1
102
RTVSPost2010Prop50
 90
       50
102
RTVSPost2010PropOp50
 70
     1
102
RTVSPost2010Prop51ColorIndex
 90
      256
102
RTVSPost2010Prop51ColorRGB
 90
-16777216
102
RTVSPost2010PropOp51
 70
     0
102
RTVSPost2010Prop52
140
1.0
102
RTVSPost2010PropOp52
 70
     0
102
RTVSPost2010Prop53
 90
        2
102
RTVSPost2010PropOp53
 70
     1
102
RTVSPost2010Prop54
  1
strokes_ogs.tif
102
RTVSPost2010PropOp54
 70
     1
102
RTVSPost2010Prop55
280
     0
102
RTVSPost2010PropOp55
 70
     1
102
RTVSPost2010Prop56
140
1.0
102
RTVSPost2010PropOp56
 70
     1
102
RTVSPost2010Prop57
140
1.0
102
RTVSPost2010PropOp57
 70
     1
  0
XRECORD
  5
31A
102
{ACAD_REACTORS
330
319
102
}
330
319
100
AcDbXrecord
280
     1
102
RTVSPropertyOp0
 70
     1
102
RTVSPropertyOp1
 70
     1
102
RTVSPropertyOp2
 70
     1
102
RTVSPropertyOp3
 70
     1
102
RTVSPropertyOp4
 70
     1
102
RTVSPropertyOp5
 70
     1
102
RTVSPropertyOp6
 70
     1
102
RTVSPropertyOp7
 70
     1
102
RTVSPropertyOp8
 70
     1
102
RTVSPropertyOp9
 70
     1
102
RTVSPropertyOp10
 70
     1
102
RTVSPropertyOp11
 70
     1
102
RTVSPropertyOp12
 70
     1
102
RTVSPropertyOp13
 70
     1
102
RTVSPropertyOp14
 70
     1
102
RTVSPropertyOp15
 70
     1
102
RTVSPropertyOp16
 70
     1
102
RTVSPropertyOp17
 70
     1
102
RTVSPropertyOp18
 70
     1
102
RTVSPropertyOp19
 70
     1
102
RTVSPropertyOp20
 70
     1
102
RTVSPropertyOp21
 70
     1
102
RTVSPropertyOp22
 70
     1
102
RTVSPropertyOp23
 70
     1
102
RTVSPropertyOp24
 70
     1
102
RTVSPropertyOp25
 70
     1
102
RTVSPropertyOp26
 70
     1
102
RTVSPropertyOp27
 70
     1
102
RTVSPropertyOp28
 70
     1
102
RTVSPropertyOp29
 70
     1
102
RTVSPropertyOp30
 70
     1
102
RTVSPropertyOp31
 70
     1
102
RTVSPropertyOp32
 70
     1
102
RTVSPropertyOp33
 70
     1
102
RTVSPropertyOp34
 70
     1
102
RTVSPropertyOp35
 70
     1
102
RTVSPropertyOp36
 70
     1
102
RTVSPropertyOp37
 70
     1
102
RTVSPropertyOp38
 70
     1
102
RTVSPropertyOp39
 70
     1
102
RTVSPropertyOp40
 70
     1
102
RTVSPropertyOp41
 70
     1
102
RTVSPropertyOp42
 70
     1
102
RTVSPropertyOp43
 70
     1
102
RTVSPropertyOp44
 70
     1
102
RTVSPropertyOp45
 70
     1
102
RTVSPropertyOp46
 70
     1
102
RTVSPropertyOp47
 70
     1
102
RTVSPropertyOp48
 70
     1
102
RTVSPropertyOp49
 70
     1
102
RTVSPropertyOp50
 70
     1
102
RTVSPropertyOp51
 70
     0
102
RTVSPropertyOp52
 70
     0
102
RTVSPropertyOp53
 70
     1
102
RTVSPropertyOp54
 70
     1
102
RTVSPropertyOp55
 70
     1
102
RTVSPropertyOp56
 70
     1
102
RTVSPropertyOp57
 70
     1
102
RTVSPost2010Prop28
280
     0
102
RTVSPost2010PropOp28
 70
     1
102
RTVSPost2010Prop29
280
     1
102
RTVSPost2010PropOp29
 70
     1
102
RTVSPost2010Prop30
280
     1
102
RTVSPost2010PropOp30
 70
     1
102
RTVSPost2010Prop31
280
     0
102
RTVSPost2010PropOp31
 70
     1
102
RTVSPost2010Prop32
280
     0
102
RTVSPost2010PropOp32
 70
     1
102
RTVSPost2010Prop33
280
     0
102
RTVSPost2010PropOp33
 70
     1
102
RTVSPost2010Prop34
280
     0
102
RTVSPost2010PropOp34
 70
     1
102
RTVSPost2010Prop35
280
     0
102
RTVSPost2010PropOp35
 70
     1
102
RTVSPost2010Prop36
280
     0
102
RTVSPost2010PropOp36
 70
     1
102
RTVSPost2010Prop37
 90
       50
102
RTVSPost2010PropOp37
 70
     1
102
RTVSPost2010Prop38
140
0.0
102
RTVSPost2010PropOp38
 70
     1
102
RTVSPost2010Prop39
140
1.0
102
RTVSPost2010PropOp39
 70
     1
102
RTVSPost2010Prop40
 90
        0
102
RTVSPost2010PropOp40
 70
     1
102
RTVSPost2010Prop41ColorIndex
 90
      178
102
RTVSPost2010Prop41ColorRGB
 90
        0
102
RTVSPost2010PropOp41
 70
     1
102
RTVSPost2010Prop42
 90
       50
102
RTVSPost2010PropOp42
 70
     1
102
RTVSPost2010Prop43
 90
        3
102
RTVSPost2010PropOp43
 70
     1
102
RTVSPost2010Prop44ColorIndex
 90
        5
102
RTVSPost2010Prop44ColorRGB
 90
      255
102
RTVSPost2010PropOp44
 70
     1
102
RTVSPost2010Prop45
280
     0
102
RTVSPost2010PropOp45
 70
     1
102
RTVSPost2010Prop46
 90
       50
102
RTVSPost2010PropOp46
 70
     1
102
RTVSPost2010Prop47
 90
       50
102
RTVSPost2010PropOp47
 70
     1
102
RTVSPost2010Prop48
 90
       50
102
RTVSPost2010PropOp48
 70
     1
102
RTVSPost2010Prop49
280
     0
102
RTVSPost2010PropOp49
 70
     1
102
RTVSPost2010Prop50
 90
       50
102
RTVSPost2010PropOp50
 70
     1
102
RTVSPost2010Prop51ColorIndex
 90
      256
102
RTVSPost2010Prop51ColorRGB
 90
-16777216
102
RTVSPost2010PropOp51
 70
     0
102
RTVSPost2010Prop52
140
1.0
102
RTVSPost2010PropOp52
 70
     0
102
RTVSPost2010Prop53
 90
        2
102
RTVSPost2010PropOp53
 70
     1
102
RTVSPost2010Prop54
  1
strokes_ogs.tif
102
RTVSPost2010PropOp54
 70
     1
102
RTVSPost2010Prop55
280
     0
102
RTVSPost2010PropOp55
 70
     1
102
RTVSPost2010Prop56
140
1.0
102
RTVSPost2010PropOp56
 70
     1
102
RTVSPost2010Prop57
140
1.0
102
RTVSPost2010PropOp57
 70
     1
  0
XRECORD
  5
33A
102
{ACAD_REACTORS
330
339
102
}
330
339
100
AcDbXrecord
280
     1
102
RTVSPropertyOp0
 70
     1
102
RTVSPropertyOp1
 70
     1
102
RTVSPropertyOp2
 70
     1
102
RTVSPropertyOp3
 70
     1
102
RTVSPropertyOp4
 70
     1
102
RTVSPropertyOp5
 70
     1
102
RTVSPropertyOp6
 70
     1
102
RTVSPropertyOp7
 70
     1
102
RTVSPropertyOp8
 70
     1
102
RTVSPropertyOp9
 70
     1
102
RTVSPropertyOp10
 70
     1
102
RTVSPropertyOp11
 70
     1
102
RTVSPropertyOp12
 70
     1
102
RTVSPropertyOp13
 70
     1
102
RTVSPropertyOp14
 70
     1
102
RTVSPropertyOp15
 70
     1
102
RTVSPropertyOp16
 70
     1
102
RTVSPropertyOp17
 70
     1
102
RTVSPropertyOp18
 70
     1
102
RTVSPropertyOp19
 70
     1
102
RTVSPropertyOp20
 70
     1
102
RTVSPropertyOp21
 70
     1
102
RTVSPropertyOp22
 70
     1
102
RTVSPropertyOp23
 70
     1
102
RTVSPropertyOp24
 70
     1
102
RTVSPropertyOp25
 70
     1
102
RTVSPropertyOp26
 70
     1
102
RTVSPropertyOp27
 70
     1
102
RTVSPropertyOp28
 70
     1
102
RTVSPropertyOp29
 70
     1
102
RTVSPropertyOp30
 70
     1
102
RTVSPropertyOp31
 70
     1
102
RTVSPropertyOp32
 70
     1
102
RTVSPropertyOp33
 70
     1
102
RTVSPropertyOp34
 70
     1
102
RTVSPropertyOp35
 70
     1
102
RTVSPropertyOp36
 70
     1
102
RTVSPropertyOp37
 70
     1
102
RTVSPropertyOp38
 70
     1
102
RTVSPropertyOp39
 70
     1
102
RTVSPropertyOp40
 70
     1
102
RTVSPropertyOp41
 70
     1
102
RTVSPropertyOp42
 70
     1
102
RTVSPropertyOp43
 70
     1
102
RTVSPropertyOp44
 70
     1
102
RTVSPropertyOp45
 70
     1
102
RTVSPropertyOp46
 70
     1
102
RTVSPropertyOp47
 70
     1
102
RTVSPropertyOp48
 70
     1
102
RTVSPropertyOp49
 70
     1
102
RTVSPropertyOp50
 70
     1
102
RTVSPropertyOp51
 70
     0
102
RTVSPropertyOp52
 70
     0
102
RTVSPropertyOp53
 70
     1
102
RTVSPropertyOp54
 70
     1
102
RTVSPropertyOp55
 70
     1
102
RTVSPropertyOp56
 70
     1
102
RTVSPropertyOp57
 70
     1
102
RTVSPost2010Prop28
280
     0
102
RTVSPost2010PropOp28
 70
     1
102
RTVSPost2010Prop29
280
     1
102
RTVSPost2010PropOp29
 70
     1
102
RTVSPost2010Prop30
280
     1
102
RTVSPost2010PropOp30
 70
     1
102
RTVSPost2010Prop31
280
     0
102
RTVSPost2010PropOp31
 70
     1
102
RTVSPost2010Prop32
280
     0
102
RTVSPost2010PropOp32
 70
     1
102
RTVSPost2010Prop33
280
     0
102
RTVSPost2010PropOp33
 70
     1
102
RTVSPost2010Prop34
280
     0
102
RTVSPost2010PropOp34
 70
     1
102
RTVSPost2010Prop35
280
     0
102
RTVSPost2010PropOp35
 70
     1
102
RTVSPost2010Prop36
280
     0
102
RTVSPost2010PropOp36
 70
     1
102
RTVSPost2010Prop37
 90
       50
102
RTVSPost2010PropOp37
 70
     1
102
RTVSPost2010Prop38
140
0.0
102
RTVSPost2010PropOp38
 70
     1
102
RTVSPost2010Prop39
140
1.0
102
RTVSPost2010PropOp39
 70
     1
102
RTVSPost2010Prop40
 90
        0
102
RTVSPost2010PropOp40
 70
     1
102
RTVSPost2010Prop41ColorIndex
 90
      178
102
RTVSPost2010Prop41ColorRGB
 90
        0
102
RTVSPost2010PropOp41
 70
     1
102
RTVSPost2010Prop42
 90
       50
102
RTVSPost2010PropOp42
 70
     1
102
RTVSPost2010Prop43
 90
        3
102
RTVSPost2010PropOp43
 70
     1
102
RTVSPost2010Prop44ColorIndex
 90
        5
102
RTVSPost2010Prop44ColorRGB
 90
      255
102
RTVSPost2010PropOp44
 70
     1
102
RTVSPost2010Prop45
280
     0
102
RTVSPost2010PropOp45
 70
     1
102
RTVSPost2010Prop46
 90
       50
102
RTVSPost2010PropOp46
 70
     1
102
RTVSPost2010Prop47
 90
       50
102
RTVSPost2010PropOp47
 70
     1
102
RTVSPost2010Prop48
 90
       50
102
RTVSPost2010PropOp48
 70
     1
102
RTVSPost2010Prop49
280
     0
102
RTVSPost2010PropOp49
 70
     1
102
RTVSPost2010Prop50
 90
       50
102
RTVSPost2010PropOp50
 70
     1
102
RTVSPost2010Prop51ColorIndex
 90
      256
102
RTVSPost2010Prop51ColorRGB
 90
-16777216
102
RTVSPost2010PropOp51
 70
     0
102
RTVSPost2010Prop52
140
1.0
102
RTVSPost2010PropOp52
 70
     0
102
RTVSPost2010Prop53
 90
        2
102
RTVSPost2010PropOp53
 70
     1
102
RTVSPost2010Prop54
  1
strokes_ogs.tif
102
RTVSPost2010PropOp54
 70
     1
102
RTVSPost2010Prop55
280
     0
102
RTVSPost2010PropOp55
 70
     1
102
RTVSPost2010Prop56
140
1.0
102
RTVSPost2010PropOp56
 70
     1
102
RTVSPost2010Prop57
140
1.0
102
RTVSPost2010PropOp57
 70
     1
  0
ENDSEC
  0
EOF
